<?xml version="1.0" standalone="no"?>
<!DOCTYPE svg PUBLIC "-//W3C//DTD SVG 1.1//EN" "http://www.w3.org/Graphics/SVG/1.1/DTD/svg11.dtd">
<svg xmlns="http://www.w3.org/2000/svg">
<defs >
<font id="Cormorant" horiz-adv-x="539" ><font-face
    font-family="Cormorant Light Medium"
    units-per-em="1000"
    panose-1="0 0 0 0 0 0 0 0 0 0"
    ascent="924"
    descent="-287"
    alphabetic="0" />
<glyph unicode=" " horiz-adv-x="234" />
<glyph unicode="!" horiz-adv-x="252" d="M73 618Q72 622 80 624T101 628T126 629Q138 629 151 628T172 625T179 618Q165 554 157 480T143 331T134 189Q134 187 129 186T119 186T114 189Q111 256 107 330T94 479T73 618ZM121 -11Q99 -11 86 2T72 38Q72 59 85 71T121
84Q145 84 157 72T169 38Q169 15 157 2T121 -11Z" />
<glyph unicode="&quot;" horiz-adv-x="289" d="M56 365L38 608Q38 616 51 623T82 635T113 640T124 635L69 366Q68 364 62 363T56 365ZM201 365L183 608Q183 616 196 623T227 635T258 640T269 635L214 366Q213 364 207 363T201 365Z" />
<glyph unicode="#" horiz-adv-x="526" d="M143 -80Q143 -83 133 -83T112 -80T102 -75L201 482Q201 485 211 484T231 480T241 474L143 -80ZM330 -80Q330 -83 320 -83T299 -80T290 -75L388 482Q388 485 398 484T419 480T428 474L330 -80ZM63 76Q60 76 59 86T59 107T62
118H428Q431 118 432 108T432 87T428 76H63ZM98 275Q95 275 94 285T94 306T97 316H463Q466 316 467 306T467 286T463 275H98Z" />
<glyph unicode="$" horiz-adv-x="414" d="M203 -102V561Q203 566 209 567T221 568T227 561V-102Q227 -106 222 -107T210 -108T203 -102ZM127 388Q127 356 144 335T189 297T246 265Q278 249 307 231T355 187T374 125Q374 87 353 56T294 7T202 -12Q165 -12 131 -3T73
23Q69 26 67 30T65 43L56 146Q55 151 60 151T68 148Q80 114 102 81T155 27T222 6Q242 6 261 14T294 40T307 88Q307 122 289 146T243 188T185 222Q155 238 128 256T83 298T65 357Q65 397 87 424T146 466T223 480Q249 480 277 474T330 457Q339 453 341 450T345 439L350
350Q350 346 345 345T338 347Q335 361 324 380T296 419T257 450T206 462Q166 462 147 441T127 388Z" />
<glyph unicode="%" horiz-adv-x="574" d="M150 303Q95 303 60 340T24 433Q24 468 40 497T85 543T150 560Q205 560 239 522T273 430Q273 377 239 340T150 303ZM157 316Q190 316 198 346T207 423Q207 547 144 547Q110 547 100 515T90 436Q90 385 104 351T157 316ZM427
-5Q391 -5 362 12T317 59T301 125Q301 160 317 189T362 235T427 253Q464 253 491 236T534 189T550 123Q550 69 516 32T427 -5ZM434 9Q467 9 475 39T484 116Q484 239 421 239Q388 239 378 207T367 129Q367 78 381 44T434 9ZM107 -6Q106 -8 99 -5T87 2T82 9L452 553Q454
555 460 552T473 544T478 537L107 -6Z" />
<glyph unicode="&amp;" horiz-adv-x="703" d="M64 135Q64 179 86 212T142 274T214 330T287 386T343 450T365 529Q365 574 342 598T282 623Q247 623 229 602T211 535Q211 482 234 428T298 320T389 217T495 126Q561 77 616 49T706 12Q710 11 710 6T706 0Q681 0 648
0T580 0Q568 0 548 8T496 36T416 96Q369 134 322 179T235 274T171 371Q158 399 150 425T142 479Q142 526 163 563T224 623T316 646Q347 646 375 637T421 605T439 547Q439 505 418 474T362 416T289 365T217 313T162 253T140 177Q140 136 161 101T222 45T313 24Q358
24 394 42T457 91T496 164T510 253Q510 293 496 315T436 337Q433 337 433 343T436 349L654 350Q657 350 657 344T654 338Q621 338 605 332T581 311T567 274Q558 241 544 203T506 127T449 58T368 7T258 -12Q191 -12 148 9T85 65T64 135Z" />
<glyph unicode="&apos;" horiz-adv-x="143" d="M56 365L38 608Q38 616 51 623T82 635T113 640T124 635L69 366Q68 364 62 363T56 365Z" />
<glyph unicode="(" horiz-adv-x="309" d="M58 304Q58 398 83 480T157 625T274 725Q276 726 278 724T278 719Q206 647 174 543T141 304Q141 169 173 65T278 -111Q280 -112 278 -115T274 -117Q205 -80 157 -17T84 128T58 304Z" />
<glyph unicode=")" horiz-adv-x="309" d="M251 304Q251 211 226 129T152 -17T35 -117Q34 -118 32 -116T31 -111Q104 -39 136 65T168 304Q168 439 136 543T31 719Q29 721 31 723T35 725Q104 689 152 626T225 480T251 304Z" />
<glyph unicode="*" horiz-adv-x="448" d="M144 378Q141 372 125 374T92 384T63 398T55 407L206 491Q208 493 212 490T214 485L144 378ZM266 312L233 481Q232 483 236 486T241 488L322 387Q327 382 320 368T300 340T278 317T266 312ZM204 511L79 544Q72 546 70
561T69 596T74 628T80 638L207 520Q210 519 208 515T204 511ZM423 483L251 503Q249 503 248 507T248 513L368 559Q375 562 386 551T407 523T423 495T423 483ZM226 529L219 657Q219 665 233 671T265 682T297 688T308 685L236 529Q235 526 231 526T226 529Z" />
<glyph unicode="+" horiz-adv-x="398" d="M34 168Q31 168 30 179T30 200T33 211H364Q367 211 368 201T368 179T364 168H34ZM220 25Q220 22 210 21T188 20T177 23V354Q177 357 188 358T209 358T220 354V25Z" />
<glyph unicode="," horiz-adv-x="222" d="M102 82Q133 82 151 60T169 -9Q169 -58 147 -100T86 -184Q82 -187 79 -184T78 -177Q104 -143 111 -113T119 -49Q119 -20 112 -5T93 20L131 27Q132 10 122 1T94 -8Q73 -8 62 4T50 36Q50 58 63 70T102 82Z" />
<glyph unicode="-" horiz-adv-x="323" d="M32 162Q29 162 28 173T27 195T30 207L291 254Q294 255 295 244T295 221T291 209L32 162Z" />
<glyph unicode="." horiz-adv-x="200" d="M101 -11Q79 -11 66 2T52 38Q52 59 65 71T101 84Q125 84 137 72T149 38Q149 15 137 2T101 -11Z" />
<glyph unicode="/" horiz-adv-x="344" d="M67 -164Q66 -166 56 -164T36 -158T26 -152L278 730Q280 733 290 731T310 725T318 717L67 -164Z" />
<glyph unicode="0" horiz-adv-x="477" d="M240 -13Q180 -13 133 14T59 88T32 196Q32 256 58 301T132 373T241 399Q301 399 347 373T419 300T445 193Q445 133 419 87T347 14T240 -13ZM251 3Q308 3 335 52T363 180Q363 252 345 296T296 362T231 383Q174 383 144
333T113 205Q113 146 130 101T178 29T251 3Z" />
<glyph unicode="1" horiz-adv-x="332" d="M50 0Q48 0 48 6T50 12Q91 12 111 17T139 37T146 81V264Q146 302 140 317T112 329T49 307Q45 305 43 310T44 318L205 395Q209 397 212 394T215 388V81Q215 52 221 37T248 17T309 12Q312 12 312 6T309 0Q282 0 250 1T180
2Q143 2 110 1T50 0Z" />
<glyph unicode="2" horiz-adv-x="402" d="M37 19Q100 71 141 109T208 177T244 232T255 283Q255 322 233 348T172 374Q132 374 105 341T59 248Q58 246 52 247T47 250L88 408Q89 411 95 410T99 406Q95 389 100 384T113 379Q129 379 154 389T218 399Q271 399 300
372T330 301Q330 271 315 243T273 188T208 130T126 66Q122 63 124 61T130 59Q196 59 239 60T307 66T345 84T363 119Q364 122 369 121T375 118L358 11Q358 7 356 4T349 0Q278 0 198 0T44 0Q39 0 36 7T37 19Z" />
<glyph unicode="3" horiz-adv-x="391" d="M57 -275Q53 -276 51 -271T52 -264Q117 -242 159 -213T225 -150T260 -83T270 -22Q270 13 258 42T222 89T158 107Q147 107 136 106T111 101Q108 100 106 106T108 113Q184 133 216 169T248 268Q248 317 230 346T170 375Q127
375 95 347T43 258Q42 256 36 257T31 261L68 407Q70 410 75 409T80 405Q76 388 82 383T95 377Q111 377 138 388T203 399Q262 399 293 364T324 285Q324 248 307 214T257 154T178 119L188 133Q245 132 281 112T335 59T353 -10Q353 -56 322 -106T226 -201T57 -275Z"
/>
<glyph unicode="4" horiz-adv-x="453" d="M31 8Q27 8 24 12T24 20L321 396Q323 399 329 398T336 392V-148Q336 -158 328 -162L275 -188Q266 -193 266 -182V304L312 338L78 46Q75 43 77 41T83 39Q139 39 183 39T264 41T337 43T416 45Q419 45 419 34T419 12T415
1Q376 3 337 4T254 6T156 7T31 8Z" />
<glyph unicode="5" horiz-adv-x="409" d="M78 196Q178 196 238 172T326 106T354 9Q354 -48 325 -94T233 -184T68 -275Q64 -276 61 -271T62 -264Q146 -221 192 -179T257 -94T276 -8Q276 74 223 120T68 167Q56 167 58 179L90 357Q91 364 93 365T103 368Q189 378
237 384T307 395T335 406T345 423Q346 426 351 426T356 421L336 336Q332 323 326 321T308 318L119 314Q106 314 104 299L81 174L78 196Z" />
<glyph unicode="6" horiz-adv-x="465" d="M302 285Q350 285 378 266T420 219T433 159Q433 112 406 73T332 10T230 -13Q145 -13 95 44T44 208Q44 301 86 390T208 551T400 661Q404 662 406 657T405 650Q310 606 247 536T152 384T120 224Q120 165 136 116T183 37T258
8Q302 8 329 40T357 132Q357 183 334 217T262 252Q238 252 217 243T171 211Q168 208 164 211T160 218Q187 250 222 267T302 285Z" />
<glyph unicode="7" horiz-adv-x="429" d="M167 -216Q163 -226 159 -231T146 -240L86 -275Q84 -276 81 -273T79 -268L343 317Q347 324 339 324Q256 324 202 323T116 318T68 307T45 287T32 256Q31 253 25 254T20 259L58 413Q60 415 65 415T70 412Q66 395 75 391T117
386Q132 386 163 386T233 386T311 386T382 386Q387 386 390 382T391 373L167 -216Z" />
<glyph unicode="8" horiz-adv-x="489" d="M283 344Q306 370 318 396T331 453Q331 500 305 528T241 556Q209 556 188 537T167 485Q167 454 186 430T235 386T299 346Q338 325 374 301T433 243T456 162Q456 111 427 72T349 10T242 -13Q181 -13 137 10T68 70T44 151Q44
197 68 237T132 309T218 355L224 347Q176 323 149 278T121 177Q121 133 140 94T192 31T269 6Q304 6 331 22T373 65T388 128Q388 175 365 206T307 260T234 304Q200 324 170 344T121 391T101 452Q101 495 126 521T188 561T259 574Q302 574 333 558T380 518T397 469Q397
436 369 401T289 338L283 344Z" />
<glyph unicode="9" horiz-adv-x="465" d="M173 107Q122 107 91 128T46 181T32 244Q32 290 56 324T121 379T216 399Q280 399 325 370T396 290T421 168Q421 101 398 34T329 -94T217 -202T65 -275Q62 -276 60 -271T61 -264Q132 -234 185 -187T274 -83T327 33T345
149Q345 184 338 224T313 299T269 357T201 380Q156 380 132 349T108 265Q108 212 133 176T209 139Q233 139 252 147T295 174Q297 177 302 174T305 167Q256 107 173 107Z" />
<glyph unicode=":" horiz-adv-x="200" d="M101 -11Q79 -11 66 2T52 38Q52 59 65 71T101 84Q125 84 137 72T149 38Q149 15 137 2T101 -11ZM101 270Q79 270 66 283T52 319Q52 340 65 352T101 365Q125 365 137 353T149 319Q149 296 137 283T101 270Z" />
<glyph unicode=";" horiz-adv-x="227" d="M106 82Q137 82 155 60T173 -9Q173 -58 151 -100T90 -184Q86 -187 83 -184T82 -177Q108 -143 115 -113T123 -49Q123 -20 116 -5T97 20L135 27Q136 10 126 1T98 -8Q77 -8 66 4T54 36Q54 58 67 70T106 82ZM103 270Q81 270
68 283T54 319Q54 340 67 352T103 365Q127 365 139 353T151 319Q151 296 139 283T103 270Z" />
<glyph unicode="&lt;" horiz-adv-x="407" d="M36 173Q31 176 31 190T36 207L370 354Q375 357 376 347T377 326T370 311L56 178V203L370 69Q375 67 376 55T377 33T370 25L36 173Z" />
<glyph unicode="=" horiz-adv-x="468" d="M34 99Q31 99 30 109T30 129T33 140H434Q437 140 438 130T438 109T434 99H34ZM34 239Q31 239 30 249T30 270T33 280H434Q437 280 438 270T438 250T434 239H34Z" />
<glyph unicode="&gt;" horiz-adv-x="407" d="M371 206Q376 203 376 189T371 172L37 25Q33 23 32 32T31 54T37 68L351 201V176L37 310Q33 313 32 324T31 346T37 354L371 206Z" />
<glyph unicode="?" horiz-adv-x="332" d="M161 610Q137 610 131 596T122 565Q121 554 117 542T105 522T78 513Q57 513 48 525T39 551Q39 582 75 603T163 625Q201 625 233 612T285 573T304 505Q304 473 292 450T260 408T221 372Q188 340 174 312T160 248Q160 236
161 223T165 194Q167 191 160 190T152 191Q140 219 133 254T126 311Q126 339 136 358T160 393T189 425T213 463T223 518Q223 559 206 584T161 610ZM149 -11Q127 -11 114 2T100 38Q100 59 113 71T149 84Q173 84 185 72T197 38Q197 15 185 2T149 -11Z" />
<glyph unicode="@" horiz-adv-x="722" d="M411 141L430 231L453 244Q430 189 398 145T332 76T265 51Q241 51 224 69T213 133Q219 175 240 214T291 286T354 338T418 357Q438 357 456 346T476 308L447 327Q458 329 472 339T489 364Q491 366 499 366T506 363L465
139Q460 110 465 92T499 74Q525 74 551 92T595 147T614 236Q614 302 582 355T495 441T368 473Q290 473 235 435T150 335T120 199Q120 119 154 59T251 -34T396 -68Q441 -68 479 -58T562 -20Q564 -18 567 -22T568 -28Q513 -73 460 -86T362 -100Q281 -100 215 -68T110
26T71 174Q71 246 98 305T171 406T277 472T401 496Q479 496 536 465T625 381T657 266Q657 209 631 160T562 82T467 53Q430 53 417 77T411 141ZM299 98Q318 98 339 113T379 153T414 210T436 272Q441 298 432 316T399 334Q375 333 350 310T305 251T277 171Q271 140
275 119T299 98Z" />
<glyph unicode="A" horiz-adv-x="706" d="M215 321L230 344H436L443 321H215ZM704 12Q709 12 709 6T704 0Q675 0 645 2T585 4Q553 4 530 2T477 0Q473 0 473 6T477 12Q526 12 537 27T526 89L311 536L343 584L148 132Q122 71 145 42T231 12Q236 12 236 6T231 0Q201
0 176 2T113 4Q76 4 54 2T-1 0Q-5 0 -5 6T-1 12Q26 12 46 22T84 61T125 141L338 632Q339 635 345 635T352 632L592 137Q616 88 633 61T668 23T704 12Z" />
<glyph unicode="B" horiz-adv-x="570" d="M302 340L313 353Q375 353 421 331T493 271T519 183Q519 130 492 88T417 21T310 -4Q280 -4 239 -1T164 2Q130 2 99 1T43 0Q40 0 40 6T43 12Q76 12 94 17T118 37T125 81V544Q125 573 119 587T96 607T44 613Q42 613 42 619T44
625Q69 625 99 624T164 622Q191 622 224 625T283 628Q343 628 381 612T439 566T458 497Q458 441 416 399T302 340ZM264 611Q242 611 229 607T210 588T204 542V346L171 354Q203 352 224 352T248 351Q318 351 349 391T380 489Q380 525 368 552T330 595T264 611ZM294
16Q367 16 400 53T434 159Q434 233 393 280T273 328Q253 329 227 328T174 323L204 334V81Q204 58 210 44T236 23T294 16Z" />
<glyph unicode="C" horiz-adv-x="669" d="M417 636Q461 636 510 628T590 604Q598 599 601 595T605 580L616 460Q616 457 611 456T605 459Q579 538 520 575T378 613Q304 613 251 580T169 486T140 344Q140 274 160 212T218 104T303 31T408 4Q476 4 529 44T614 168Q615
172 620 171T626 167L612 47Q610 35 608 32T596 24Q548 5 501 -3T408 -12Q312 -12 244 17T132 95T69 202T49 317Q49 390 79 448T161 548T279 613T417 636Z" />
<glyph unicode="D" horiz-adv-x="696" d="M310 -4Q280 -4 236 -1T155 2Q121 2 90 1T33 0Q31 0 31 6T33 12Q68 12 86 17T110 37T116 81V544Q116 573 110 587T87 607T35 613Q32 613 32 619T35 625Q60 625 90 624T155 622Q189 622 228 624T296 627Q402 627 480 587T603
478T647 323Q647 248 621 188T547 85T439 19T310 -4ZM300 14Q375 14 432 47T523 144T556 301Q556 388 525 457T439 568T306 610Q246 610 221 598T195 542V92Q195 52 215 33T300 14Z" />
<glyph unicode="E" horiz-adv-x="542" d="M469 0H43Q40 0 40 6T43 12Q77 12 94 17T118 37T124 81V544Q124 573 118 587T95 607T43 613Q40 613 40 619T43 625H451Q461 625 461 616L463 490Q463 487 458 487T451 489Q444 544 412 572T328 601H277Q247 601 231 596T209
578T203 540V85Q203 61 208 48T229 29T271 23H337Q394 23 431 56T482 152Q482 155 488 154T494 150Q490 123 487 85T484 15Q484 0 469 0ZM413 230Q413 273 389 293T310 314H165V337H313Q364 337 388 354T412 409Q412 411 417 411T423 409Q423 378 423 361T422 325Q422
302 423 279T425 230Q425 228 419 228T413 230Z" />
<glyph unicode="F" horiz-adv-x="513" d="M39 0Q37 0 37 6T39 12Q76 12 93 17T117 37T124 81V544Q124 573 118 587T95 607T43 613Q40 613 40 619T43 625H451Q461 625 461 616L463 490Q463 487 458 487T451 489Q444 544 412 572T328 601H277Q233 601 218 589T203
543V85Q203 55 211 40T244 18T320 12Q322 12 322 6T320 0Q287 0 249 1T162 2Q128 2 96 1T39 0ZM401 218Q401 261 375 281T292 302H165V325H295Q350 325 375 343T400 397Q400 399 406 399T412 397Q412 366 412 349T411 313Q411 290 412 267T413 218Q413 216 407
216T401 218Z" />
<glyph unicode="G" horiz-adv-x="716" d="M406 -12Q294 -12 214 30T92 145T49 305Q49 379 77 439T157 544T278 612T429 636Q476 636 522 628T597 603Q606 598 607 594T610 580L623 459Q623 457 618 456T611 459Q585 532 527 572T384 612Q265 612 202 539T138 342Q138
242 176 167T280 48T431 5Q476 5 503 14T542 49T555 126Q555 174 549 196T520 226T446 233Q440 233 440 241T445 249Q510 245 563 245T675 247Q680 247 680 240T675 233Q654 234 645 227T633 194T630 116Q630 83 632 67T635 44T637 28Q637 22 635 20T625 16Q573
4 516 -4T406 -12Z" />
<glyph unicode="H" horiz-adv-x="761" d="M562 542Q562 571 557 586T533 607T476 613Q473 613 473 619T476 625Q500 625 531 624T602 622Q636 622 668 623T725 625Q728 625 728 619T725 613Q690 613 672 608T647 588T641 544V81Q641 52 647 37T671 17T725 12Q728
12 728 6T725 0Q701 0 669 1T602 2Q563 2 532 1T476 0Q473 0 473 6T476 12Q514 12 532 17T556 37T562 81V542ZM155 314V337H597V314H155ZM118 81V544Q118 573 112 587T88 607T35 613Q32 613 32 619T35 625Q60 625 91 624T156 622Q196 622 227 623T284 625Q286 625
286 619T284 613Q247 613 229 607T204 586T197 542V81Q197 52 203 37T228 17T284 12Q286 12 286 6T284 0Q258 0 227 1T156 2Q122 2 90 1T33 0Q31 0 31 6T33 12Q69 12 87 17T112 37T118 81Z" />
<glyph unicode="I" horiz-adv-x="335" d="M208 81Q208 52 213 37T236 17T289 12Q291 12 291 6T289 0Q264 0 234 1T167 2Q132 2 101 1T45 0Q43 0 43 6T45 12Q80 12 98 17T122 37T128 81V544Q128 573 122 587T98 607T45 613Q43 613 43 619T45 625Q70 625 101 624T167
622Q203 622 234 623T289 625Q291 625 291 619T289 613Q254 613 237 607T214 586T208 542V81Z" />
<glyph unicode="J" horiz-adv-x="327" d="M285 625Q288 625 288 619T285 613Q256 613 241 607T221 586T216 542V-20Q216 -121 168 -182T28 -243Q-7 -243 -28 -230T-49 -195Q-49 -179 -40 -168T-10 -156Q10 -156 20 -166T38 -189T52 -213T74 -223Q104 -223 120
-185T136 -57V544Q136 573 129 587T102 607T42 613Q40 613 40 619T42 625Q72 625 105 624T175 622Q208 622 235 623T285 625Z" />
<glyph unicode="K" horiz-adv-x="652" d="M116 81V544Q116 573 110 587T87 607T35 613Q32 613 32 619T35 625Q60 625 90 624T155 622Q191 622 221 623T276 625Q278 625 278 619T276 613Q241 613 224 607T201 586T195 542V81Q195 52 200 37T223 17T276 12Q279 12
279 6T276 0Q251 0 221 1T155 2Q121 2 90 1T33 0Q31 0 31 6T33 12Q68 12 86 17T110 37T116 81ZM370 145L218 340L278 392L426 199Q469 142 499 106T549 51T585 23T615 13T648 12Q651 12 651 6T648 0Q604 0 577 0T536 0Q514 0 502 0T482 4T462 23T429 67T370 145ZM143
278L400 537Q438 575 431 594T373 613Q370 613 370 619T373 625Q398 625 424 624T493 622Q535 622 559 623T606 625Q609 625 609 619T606 613Q567 613 518 594T425 531L168 277L143 278Z" />
<glyph unicode="L" horiz-adv-x="537" d="M194 543V85Q194 59 199 46T220 28T267 23H352Q417 23 458 61T512 162Q512 165 517 165T523 161Q520 132 517 91T514 15Q514 0 499 0H33Q31 0 31 6T33 12Q68 12 85 17T109 37T115 81V544Q115 573 109 587T86 607T33 613Q31
613 31 619T33 625Q57 625 88 624T154 622Q190 622 220 623T275 625Q277 625 277 619T275 613Q240 613 223 608T200 587T194 543Z" />
<glyph unicode="M" horiz-adv-x="842" d="M119 114L129 602L154 600L144 114Q143 62 162 37T228 12Q231 12 231 6T228 0Q206 0 183 1T131 2Q104 2 80 1T35 0Q33 0 33 6T35 12Q77 12 97 37T119 114ZM819 12Q821 12 821 6T819 0Q794 0 763 1T697 2Q664 2 635 1T583
0Q580 0 580 6T583 12Q632 12 646 25T657 81L637 552L676 608L417 7Q416 3 410 3T401 7L140 542Q105 613 42 613Q40 613 40 619T42 625Q60 625 79 624T113 623Q132 623 147 624T171 625Q185 625 193 616T217 573L444 112L407 48L648 600Q653 612 660 618T678 625Q685
625 695 624T720 623Q748 623 767 624T806 625Q808 625 808 619T806 613Q758 613 736 598T715 541L736 81Q738 52 744 37T767 17T819 12Z" />
<glyph unicode="N" horiz-adv-x="730" d="M122 114V602L148 600V114Q148 62 167 37T227 12Q229 12 229 6T227 0Q206 0 185 1T136 2Q110 2 85 1T38 0Q36 0 36 6T38 12Q82 12 102 37T122 114ZM628 -13Q628 -15 624 -15T617 -15L146 543Q111 584 86 598T35 613Q33
613 33 619T35 625Q54 625 73 624T108 623Q132 623 152 624T182 625Q195 625 201 614T230 573L620 103L628 -13ZM628 510V-13L603 18V510Q603 562 585 587T525 613Q523 613 523 619T525 625Q546 625 568 624T616 622Q641 622 665 623T710 625Q712 625 712 619T710
613Q668 613 648 588T628 510Z" />
<glyph unicode="O" horiz-adv-x="766" d="M366 -12Q294 -12 236 13T136 84T72 187T49 312Q49 393 80 454T164 555T278 616T401 636Q475 636 533 610T633 538T695 436T717 319Q717 249 689 189T613 84T501 14T366 -12ZM401 10Q464 10 515 42T596 137T626 291Q626
384 594 456T502 570T360 612Q255 612 198 541T140 347Q140 276 158 215T212 107T295 36T401 10Z" />
<glyph unicode="P" horiz-adv-x="546" d="M200 85Q200 55 207 40T239 18T311 12Q314 12 314 6T311 0Q279 0 242 1T160 2Q127 2 96 1T39 0Q37 0 37 6T39 12Q74 12 91 17T114 37T120 81V544Q120 573 115 587T92 607T39 613Q37 613 37 619T39 625Q64 625 95 624T159
622Q185 622 222 625T298 628Q356 628 402 611T477 558T506 464Q506 412 487 374T436 311T364 274T286 262Q274 262 262 263T238 267Q234 268 235 274T240 280Q249 278 258 277T275 276Q313 276 345 294T397 349T417 443Q417 497 399 534T347 591T271 611Q243 611
228 607T206 588T200 542V85Z" />
<glyph unicode="Q" horiz-adv-x="766" d="M472 9Q499 -43 539 -83T624 -146T709 -169Q719 -169 728 -168T745 -166Q748 -165 749 -170T749 -176Q728 -181 707 -184T665 -188Q618 -188 565 -167T461 -103T372 2L472 9ZM366 -12Q294 -12 236 13T136 84T72 187T49
312Q49 393 80 454T164 555T278 616T401 636Q475 636 533 610T633 538T695 436T717 319Q717 249 689 189T613 84T501 14T366 -12ZM401 10Q464 10 515 42T596 137T626 291Q626 384 594 456T502 570T360 612Q255 612 198 541T140 347Q140 276 158 215T212 107T295
36T401 10Z" />
<glyph unicode="R" horiz-adv-x="681" d="M546 0Q530 0 494 40T406 154T291 330L358 352Q442 226 500 152T604 45T690 12Q693 12 693 6T690 0Q634 0 599 0T546 0ZM288 628Q374 628 419 595T465 502Q465 465 448 431T401 371T333 330T253 315Q241 315 228 315T204
317V81Q204 52 209 37T232 17T285 12Q288 12 288 6T285 0Q260 0 230 1T164 2Q130 2 99 1T43 0Q40 0 40 6T43 12Q77 12 94 17T118 37T125 81V544Q125 573 119 587T96 607T44 613Q42 613 42 619T44 625Q69 625 99 624T164 622Q191 622 226 625T288 628ZM382 466Q382
523 367 554T327 598T269 611Q245 611 231 607T211 587T204 542V343Q218 342 234 341T263 339Q327 339 354 367T382 466Z" />
<glyph unicode="S" horiz-adv-x="499" d="M154 513Q154 473 174 444T226 393T294 348Q331 326 365 301T422 243T445 161Q445 112 420 73T348 11T236 -12Q210 -12 184 -8T133 5T89 25Q85 28 83 32T80 44L70 187Q69 192 74 192T81 189Q90 158 105 126T141 68T191
24T260 7Q287 7 312 17T354 50T370 116Q370 164 349 197T295 254T225 300Q190 322 158 346T105 401T85 478Q85 532 113 567T186 619T278 636Q309 636 341 630T399 613Q408 609 411 605T414 595L419 470Q419 467 414 466T407 469Q404 486 394 511T367 561T324 602T259
619Q224 619 201 605T166 567T154 513Z" />
<glyph unicode="T" horiz-adv-x="637" d="M199 605Q137 605 102 571T50 460Q49 458 44 458T38 461Q40 474 42 498T47 550T50 604T52 647Q52 652 58 652T64 647Q64 637 74 633T97 627T119 625Q205 622 320 622Q390 622 432 623T513 625Q547 625 565 629T589 650Q590
654 595 654T601 650Q599 635 598 608T595 552T592 498T591 461Q591 458 586 458T580 461Q573 539 540 572T442 605Q407 605 390 601T367 583T361 542V81Q361 52 367 37T393 17T454 12Q456 12 456 6T454 0Q427 0 394 1T320 2Q282 2 249 1T187 0Q184 0 184 6T187
12Q226 12 246 17T274 37T281 81V544Q281 571 275 584T251 601T199 605Z" />
<glyph unicode="U" horiz-adv-x="700" d="M572 510Q572 560 550 586T483 613Q480 613 480 619T483 625Q506 625 531 624T585 622Q610 622 634 623T680 625Q682 625 682 619T680 613Q640 613 620 587T599 510V227Q599 152 569 98T485 16T359 -13Q285 -13 229 15T142
97T111 223V544Q111 573 105 587T82 607T30 613Q27 613 27 619T30 625Q55 625 85 624T150 622Q186 622 216 623T270 625Q273 625 273 619T270 613Q236 613 219 607T196 586T190 542V258Q190 138 242 79T386 19Q474 19 523 73T572 226V510Z" />
<glyph unicode="V" horiz-adv-x="664" d="M668 625Q671 625 671 619T668 613Q634 613 607 592T560 522L356 1Q355 -3 346 -3T334 1L83 542Q66 579 48 596T1 613Q-2 613 -2 619T1 625Q14 625 25 624T49 623T81 622Q119 622 146 622T192 624T226 625Q229 625 229
619T226 613Q186 613 171 596T174 539L379 93L343 35L536 527Q552 568 537 590T468 613Q465 613 465 619T468 625Q494 625 517 624T579 622Q608 622 625 623T668 625Z" />
<glyph unicode="W" horiz-adv-x="925" d="M483 328L356 1Q355 -3 346 -3T334 1L83 542Q71 570 60 585T35 606T1 613Q-2 613 -2 619T1 625Q14 625 25 624T49 623T81 622Q114 622 137 622T177 624T208 625Q211 625 211 619T208 613Q168 613 158 599T167 539L379
86L341 31L467 351L483 328ZM929 625Q932 625 932 619T929 613Q895 613 868 592T821 522L617 1Q616 -3 607 -3T595 1L344 542Q328 578 311 595T267 613Q264 613 264 619T267 625Q280 625 290 624T313 623T342 622Q382 622 402 623T439 625Q442 625 442 619T439
613Q409 613 408 600T428 539L640 86L602 31L795 522Q812 566 798 589T735 613Q732 613 732 619T735 625Q759 625 782 624T840 622Q869 622 886 623T929 625ZM472 351L541 527Q559 572 554 592T518 613Q516 613 516 619T518 625Q529 625 535 624T552 623T584 622Q610
622 627 623T668 625Q670 625 670 619T668 613Q635 613 610 593T565 522L488 328L472 351Z" />
<glyph unicode="X" horiz-adv-x="650" d="M410 0Q408 0 408 6T410 12Q441 12 451 20T447 51L128 538Q101 579 76 596T18 613Q16 613 16 619T18 625Q37 625 58 624T97 622Q138 622 173 623T234 625Q237 625 237 619T234 613Q203 613 193 605T197 573L519 83Q545
44 572 28T638 12Q640 12 640 6T638 0Q617 0 592 1T539 2Q498 2 468 1T410 0ZM13 0Q10 0 10 6T13 12Q45 12 83 37T160 116L302 310L316 299L185 114Q150 66 157 39T213 12Q216 12 216 6T213 0Q186 0 161 1T96 2Q69 2 53 1T13 0ZM333 314L319 325L446 506Q482 557
476 585T422 613Q419 613 419 619T422 625Q449 625 474 624T539 622Q566 622 582 623T621 625Q624 625 624 619T621 613Q590 613 551 586T471 503L333 314Z" />
<glyph unicode="Y" horiz-adv-x="612" d="M306 285L448 508Q478 558 470 585T417 613Q414 613 414 619T417 625Q446 625 471 624T539 622Q564 622 579 623T617 625Q619 625 619 619T617 613Q595 613 569 600T519 562T473 503L325 269L306 285ZM281 272L110 528Q77
577 53 595T1 613Q-2 613 -2 619T1 625Q17 625 35 624T69 622Q97 622 124 622T175 624T218 625Q220 625 220 619T218 613Q182 613 174 599T182 561L344 318L281 272ZM269 310L349 319V81Q349 52 354 37T377 17T429 12Q432 12 432 6T429 0Q405 0 375 1T308 2Q274
2 243 1T187 0Q184 0 184 6T187 12Q222 12 239 17T263 37T269 81V310Z" />
<glyph unicode="Z" horiz-adv-x="598" d="M57 13L438 600Q441 605 441 606T433 608Q347 608 288 607T192 599T131 580T94 546T66 491Q65 489 59 490T54 494L94 655Q95 657 101 656T106 653Q103 635 114 630T163 625Q223 625 310 625T528 625Q533 625 535 621T535
612L158 27Q154 22 155 21T163 19Q241 19 302 19T401 19Q444 19 475 33T526 74T553 140Q554 143 559 143T564 140L550 8Q550 5 548 2T541 -2Q467 -1 385 -1T220 0T62 0Q58 0 56 4T57 13Z" />
<glyph unicode="[" horiz-adv-x="274" d="M82 -106V715Q82 722 83 723T91 725Q115 725 143 725T196 725T236 725Q239 725 239 719T236 713Q201 713 183 707T159 686T152 642V-34Q152 -62 158 -77T182 -99T236 -105Q239 -105 239 -111T236 -117Q221 -117 196 -117T143
-117T91 -117Q85 -117 84 -115T82 -106Z" />
<glyph unicode="\" horiz-adv-x="344" d="M277 -164L26 717Q25 720 34 724T54 731T66 730L318 -152Q319 -154 310 -158T290 -164T277 -164Z" />
<glyph unicode="]" horiz-adv-x="274" d="M192 -106Q192 -113 191 -115T183 -117Q160 -117 132 -117T78 -117T38 -117Q35 -117 35 -111T38 -105Q74 -105 91 -99T115 -78T122 -34V642Q122 671 116 686T92 707T38 713Q35 713 35 719T38 725Q53 725 78 725T131 725T183
725Q189 725 190 724T192 715V-106Z" />
<glyph unicode="^" horiz-adv-x="392" d="M333 380Q335 378 331 376T324 375L196 535L68 375Q66 373 62 375T58 380L185 629Q186 634 196 634T207 629L333 380Z" />
<glyph unicode="_" horiz-adv-x="398" d="M34 -78Q31 -78 30 -67T30 -46T33 -35H364Q367 -35 368 -45T368 -67T364 -78H34Z" />
<glyph unicode="`" horiz-adv-x="213" d="M36 727Q35 731 45 731T70 729T96 723T109 716L154 476Q155 474 150 473T144 474L36 727Z" />
<glyph unicode="a" horiz-adv-x="420" d="M316 -6Q312 -8 307 -8Q292 -8 279 14T265 79V255Q265 299 258 325T237 362T205 374Q183 374 168 363T146 334T135 293Q133 274 124 262T91 249Q73 249 63 258T53 283Q53 302 72 321T120 358T180 385T239 395Q279 395
306 369T333 285V108Q333 75 342 59T371 43Q388 43 415 54Q419 56 421 51T419 43L316 -6ZM115 -7Q83 -7 66 10T49 53Q49 84 73 100T150 134L275 177L278 165L176 126Q152 117 142 106T132 78Q132 57 144 45T175 33Q185 33 196 36T219 44L295 84L296 70L210 23Q181
8 159 1T115 -7Z" />
<glyph unicode="b" horiz-adv-x="512" d="M258 -13Q217 -13 179 0T105 44L158 142Q158 92 179 62T231 19T287 6Q340 6 369 51T399 178Q399 270 365 315T276 360Q238 360 206 339T145 289L137 296Q158 319 183 343T240 383T314 399Q357 399 393 379T453 317T476
214Q476 138 444 88T362 12T258 -13ZM39 -5Q35 -6 33 -2T35 4Q62 22 76 42T90 103V594Q90 630 83 646T58 662Q43 662 15 649Q11 647 9 653T10 660L141 724Q144 725 146 725Q150 725 154 722T158 715V49L39 -5Z" />
<glyph unicode="c" horiz-adv-x="415" d="M232 -12Q163 -12 120 17T56 92T35 185Q35 235 55 274T107 340T180 381T259 395Q287 395 314 387T360 365T378 330Q378 316 368 305T337 293Q318 293 306 304T287 332Q278 352 265 363T224 375Q171 375 142 331T112 216Q112
166 129 123T182 53T276 27Q304 27 328 34T376 58Q379 60 382 56T383 50Q349 19 313 4T232 -12Z" />
<glyph unicode="d" horiz-adv-x="512" d="M191 -13Q149 -13 114 10T57 77T35 179Q35 238 56 279T112 347T187 386T263 399Q299 399 329 388T386 359L370 287Q347 328 317 352T240 377Q182 377 147 336T111 210Q111 153 127 112T172 49T235 27Q279 27 312 51T375
109L384 101Q363 77 335 51T272 6T191 -13ZM421 715V112Q421 77 429 62T455 46Q464 46 476 48T504 59Q508 61 510 56T510 48L391 -9Q387 -11 384 -11Q372 -11 363 13T353 81V594Q353 630 347 646T322 662Q313 662 303 659T278 648Q274 647 272 653T272 660L405
724Q407 725 410 725Q413 725 417 722T421 715Z" />
<glyph unicode="e" horiz-adv-x="411" d="M227 -12Q165 -12 122 15T57 87T35 180Q35 241 64 289T142 366T254 395Q311 395 341 369T372 296Q372 285 370 278T361 271H290Q294 319 275 347T219 375Q168 375 140 333T112 220Q112 164 130 121T183 53T267 28Q293
28 320 35T370 59Q372 61 375 57T377 49Q341 16 304 2T227 -12ZM89 269L88 284L313 289V271L89 269Z" />
<glyph unicode="f" horiz-adv-x="305" d="M30 0Q27 0 27 6T30 12Q72 12 84 25T96 81V306Q96 330 91 341T71 355T26 359Q23 359 23 366T26 373Q66 373 80 383T95 418Q100 584 156 655T319 726Q373 726 404 711T436 671Q436 653 424 644T396 634Q379 634 370 642T351
665Q339 684 324 695T283 707Q232 707 199 644T165 439V81Q165 52 171 37T198 17T261 12Q264 12 264 6T261 0Q227 0 195 1T130 2Q102 2 77 1T30 0ZM285 337Q246 346 211 349T135 352V375Q173 375 210 378T288 385Q291 385 293 378T295 362Q295 354 292 345T285
337Z" />
<glyph unicode="g" horiz-adv-x="438" d="M176 -282Q104 -282 60 -249T15 -163Q15 -134 30 -106T77 -48T160 13L170 2Q150 -12 131 -28T99 -68T86 -126Q86 -185 122 -218T220 -252Q266 -252 298 -235T347 -189T364 -128Q364 -96 349 -78T309 -49T254 -33T193 -23Q161
-18 130 -11T79 13T59 59Q59 90 83 119T148 170L156 164Q136 153 126 137T115 101Q115 78 132 66T176 47T232 36Q267 31 301 25T363 7T408 -26T426 -85Q426 -121 407 -156T353 -219T273 -265T176 -282ZM198 152Q150 152 117 169T67 214T49 273Q49 310 71 337T131
378T210 393Q259 393 291 376T340 333T356 277Q356 241 335 213T278 169T198 152ZM221 167Q244 167 263 187T282 255Q282 310 252 343T182 377Q156 377 139 358T122 296Q122 258 136 229T172 184T221 167ZM294 316L295 349Q326 371 356 383T422 395Q425 395 426
388T428 371Q428 359 425 345T418 333Q405 339 388 344T349 349Q337 349 326 347T302 341L294 316Z" />
<glyph unicode="h" horiz-adv-x="502" d="M24 0Q22 0 22 6T24 12Q61 12 72 25T84 81V595Q84 630 78 646T54 662Q39 662 10 649Q7 647 4 653T4 660L138 725Q139 725 139 725T141 725Q145 725 148 722T152 715V81Q152 39 164 26T213 12Q216 12 216 6T213 0Q194 0
170 1T119 2Q92 2 68 1T24 0ZM293 0Q291 0 291 6T293 12Q330 12 341 25T353 81V235Q353 349 265 349Q230 349 194 328T134 272L129 284Q171 340 214 368T306 397Q361 397 391 365T421 274V81Q421 39 433 26T482 12Q485 12 485 6T482 0Q463 0 439 1T388 2Q361 2
337 1T293 0Z" />
<glyph unicode="i" horiz-adv-x="270" d="M49 0Q46 0 46 6T49 12Q85 12 97 25T109 81V265Q109 300 102 316T77 332Q69 332 59 329T34 319Q30 318 28 323T29 331L165 394Q168 395 169 395Q172 395 175 392T179 385Q179 376 178 346T177 267V81Q177 39 188 26T237
12Q240 12 240 6T237 0Q219 0 195 1T143 2Q116 2 92 1T49 0ZM137 507Q114 507 101 519T88 555Q88 577 101 589T137 601Q160 601 172 589T184 555Q184 507 137 507Z" />
<glyph unicode="j" horiz-adv-x="259" d="M173 385Q173 376 172 346T171 267V-48Q171 -114 157 -158T110 -232T19 -282Q17 -283 15 -278T14 -271Q64 -250 83 -203T103 -71V265Q103 300 97 316T72 332Q64 332 54 329T29 319Q25 318 23 323T23 331L160 394Q162 395
163 395Q166 395 169 392T173 385ZM130 507Q107 507 94 519T81 555Q81 577 94 589T130 601Q153 601 165 589T177 555Q177 507 130 507Z" />
<glyph unicode="k" horiz-adv-x="491" d="M24 0Q22 0 22 6T24 12Q61 12 72 25T84 81V595Q84 630 78 646T54 662Q39 662 10 649Q7 647 4 653T4 660L136 724Q139 725 141 725Q144 725 148 722T152 715V81Q152 39 164 26T213 12Q216 12 216 6T213 0Q194 0 170 1T119
2Q92 2 68 1T24 0ZM276 0Q273 0 273 6T276 12Q309 12 318 22T313 53L188 220L241 260L374 81Q402 43 430 28T488 12Q490 12 490 6T488 0Q469 0 445 1T393 2Q355 2 327 1T276 0ZM129 162L124 174L274 302Q309 331 303 352T252 374Q250 374 250 380T252 386Q277 386
302 385T370 384Q409 384 432 385T476 386Q478 386 478 380T476 374Q452 374 422 367T360 342T295 298L129 162Z" />
<glyph unicode="l" horiz-adv-x="261" d="M38 0Q36 0 36 6T38 12Q75 12 86 25T98 81L99 595Q99 630 93 646T68 662Q53 662 25 649Q21 647 19 653T19 660L153 724Q155 725 157 725Q160 725 164 722T169 715V81Q169 40 180 26T228 12Q232 12 232 6T228 0Q210 0 186
1T133 2Q106 2 82 1T38 0Z" />
<glyph unicode="m" horiz-adv-x="768" d="M559 0Q557 0 557 6T559 12Q596 12 608 25T620 81V235Q620 349 537 349Q503 349 469 328T411 272L407 284Q447 340 489 368T578 397Q630 397 658 367T687 274V81Q687 39 698 26T747 12Q751 12 751 6T747 0Q729 0 705 1T653
2Q627 2 603 1T559 0ZM300 0Q297 0 297 6T300 12Q336 12 348 25T360 81V235Q360 349 278 349Q243 349 210 328T152 272L148 284Q188 340 230 368T318 397Q370 397 399 368T428 279V81Q428 39 439 26T488 12Q491 12 491 6T488 0Q469 0 445 1T394 2Q367 2 343 1T300
0ZM43 0Q40 0 40 6T43 12Q79 12 90 25T102 81V276Q102 308 95 323T69 338Q59 338 46 335T16 324Q12 322 10 327T11 335L134 394Q138 395 140 395Q149 395 160 373T171 310V81Q171 39 182 26T231 12Q234 12 234 6T231 0Q212 0 188 1T137 2Q110 2 86 1T43 0Z" />
<glyph unicode="n" horiz-adv-x="520" d="M312 0Q309 0 309 6T312 12Q348 12 359 25T371 81V238Q371 295 350 322T283 350Q248 350 213 330T152 273L148 285Q189 341 232 370T324 399Q379 399 409 367T440 276V81Q440 39 451 26T500 12Q503 12 503 6T500 0Q481
0 457 1T406 2Q379 2 355 1T312 0ZM43 0Q40 0 40 6T43 12Q79 12 90 25T102 81V276Q102 308 95 323T69 338Q59 338 46 335T16 324Q12 322 10 327T11 335L134 394Q138 395 140 395Q149 395 160 373T171 310V81Q171 39 182 26T231 12Q234 12 234 6T231 0Q212 0 188
1T137 2Q110 2 86 1T43 0Z" />
<glyph unicode="o" horiz-adv-x="482" d="M233 -13Q172 -13 128 16T59 93T35 198Q35 250 54 288T106 350T176 387T251 399Q313 399 357 369T424 292T448 193Q448 130 418 84T340 12T233 -13ZM262 6Q311 6 338 44T366 162Q366 229 346 277T293 352T217 379Q168
379 142 342T115 231Q115 168 134 117T186 36T262 6Z" />
<glyph unicode="p" horiz-adv-x="511" d="M30 -275Q27 -275 27 -269T30 -263Q68 -263 79 -250T91 -194V274Q91 308 84 323T56 339Q47 339 34 336T5 324Q1 323 -1 328T-1 335L119 393Q122 395 126 395Q139 395 149 372T159 304V-194Q159 -222 166 -237T193 -257T255
-263Q258 -263 258 -269T255 -275Q228 -275 195 -274T125 -273Q98 -273 73 -274T30 -275ZM258 -13Q220 -13 192 -5T126 25L147 82Q173 51 203 30T285 9Q335 9 367 53T400 184Q400 269 362 312T271 356Q229 356 198 333T136 277L127 286Q178 345 225 372T320 399Q362
399 397 378T453 315T475 215Q475 153 455 110T401 39T330 0T258 -13Z" />
<glyph unicode="q" horiz-adv-x="492" d="M194 -13Q152 -13 116 8T58 70T35 172Q35 232 54 275T106 346T177 386T254 399Q332 399 400 356L350 267Q350 304 333 329T287 366T227 379Q170 379 141 336T112 207Q112 118 145 72T231 26Q270 26 302 47T363 97L371
90Q351 68 325 44T267 4T194 -13ZM271 -275Q269 -275 269 -269T271 -263Q321 -263 335 -250T350 -194V348L461 388Q465 390 467 386T465 379Q442 366 430 347T417 295V-194Q417 -237 428 -250T478 -263Q481 -263 481 -269T478 -275Q459 -275 435 -274T383 -273Q352
-273 324 -274T271 -275Z" />
<glyph unicode="r" horiz-adv-x="369" d="M149 271L143 282Q181 328 206 352T249 385T283 395Q304 395 325 382T346 349Q346 334 336 324T309 313Q293 313 284 322T265 339T239 348Q231 348 221 343T195 322T149 271ZM43 0Q40 0 40 6T43 12Q79 12 90 25T102 81V276Q102
308 95 323T69 338Q59 338 46 335T16 324Q12 322 10 327T11 335L134 394Q138 395 140 395Q149 395 160 373T171 310V81Q171 53 178 38T206 18T266 12Q269 12 269 6T266 0Q240 0 207 1T137 2Q110 2 86 1T43 0Z" />
<glyph unicode="s" horiz-adv-x="338" d="M106 329Q106 305 118 288T151 257T193 231Q219 218 242 204T281 168T296 113Q296 81 280 53T232 7T152 -11Q128 -11 104 -5T54 18Q52 20 50 23T48 30L46 114Q46 117 51 117T58 116Q70 83 88 59T130 21T181 8Q209 8 225
23T240 68Q240 96 227 114T193 145T151 169Q127 181 104 195T67 230T52 285Q52 325 72 350T125 386T191 398Q211 398 229 395T267 383Q276 379 276 372Q276 354 275 335T274 294Q274 291 268 291T262 294Q262 315 246 334T206 365T156 378Q135 378 121 367T106
329Z" />
<glyph unicode="t" horiz-adv-x="338" d="M187 -12Q163 -12 140 -5T103 22T88 73V304Q88 327 84 339T69 355T36 359Q33 359 33 366T36 374Q80 375 107 395T142 452Q143 455 150 455T157 452V107Q157 66 177 47T234 28Q259 28 279 37T313 56Q317 59 320 55T320
47Q283 16 252 2T187 -12ZM290 337Q250 346 213 349T135 352V375Q175 375 212 378T293 385Q296 385 298 378T300 362Q300 354 297 345T290 337Z" />
<glyph unicode="u" horiz-adv-x="497" d="M185 -9Q134 -9 105 23T75 114V265Q75 303 69 320T45 337Q32 337 14 328Q10 326 8 332T9 339L127 394Q129 395 131 395Q135 395 139 392T143 385V152Q143 94 163 67T226 39Q262 39 297 60T358 115L363 104Q321 48 278
20T185 -9ZM407 385V110Q407 76 414 61T440 46Q449 46 460 49T489 60Q493 62 495 57T495 49L371 -10Q369 -11 366 -11Q358 -11 349 11T339 76V265Q339 303 332 320T309 337Q296 337 277 328Q274 326 272 332T273 339L391 394Q393 395 395 395Q398 395 402 392T407
385Z" />
<glyph unicode="v" horiz-adv-x="436" d="M438 386Q440 386 440 380T438 374Q412 374 393 357T356 296L232 1Q230 -4 221 -4T210 1L65 303Q44 348 30 361T-4 374Q-7 374 -7 380T-4 386Q11 386 30 385T73 384Q110 384 136 385T184 386Q187 386 187 380T184 374Q153
374 136 367T129 335L255 77L219 22L334 299Q349 337 332 355T266 374Q264 374 264 380T266 386Q290 386 311 385T367 384Q389 384 403 385T438 386Z" />
<glyph unicode="w" horiz-adv-x="675" d="M449 1L305 303Q284 347 272 360T240 374Q238 374 238 380T240 386Q255 386 272 385T313 384Q347 384 372 385T418 386Q421 386 421 380T418 374Q390 374 374 366T369 335L494 77L459 22L573 299Q588 337 571 355T506
374Q503 374 503 380T506 386Q529 386 550 385T606 384Q629 384 643 385T676 386Q679 386 679 380T676 374Q651 374 632 357T595 296L471 1Q469 -3 460 -3T449 1ZM210 1L65 303Q44 348 30 361T-4 374Q-7 374 -7 380T-4 386Q11 386 30 385T73 384Q107 384 132 385T179
386Q182 386 182 380T179 374Q150 374 134 366T128 335L255 77L219 22L328 285L348 277L232 1Q231 -3 222 -3T210 1Z" />
<glyph unicode="x" horiz-adv-x="439" d="M256 0Q253 0 253 6T256 12Q282 12 285 20T274 51L106 303Q81 340 57 357T15 374Q13 374 13 380T15 386Q30 386 46 385T77 384Q111 384 137 385T184 386Q186 386 186 380T184 374Q160 374 156 366T166 335L333 83Q360
43 386 28T430 12Q432 12 432 6T430 0Q414 0 396 1T363 2Q329 2 303 1T256 0ZM10 0Q8 0 8 6T10 12Q38 12 69 33T129 92L205 197L218 185L149 85Q133 62 129 46T137 21T181 12Q184 12 184 6T181 0Q158 0 137 1T81 2Q58 2 44 1T10 0ZM222 192L211 203L276 301Q302
338 297 356T244 374Q242 374 242 380T244 386Q268 386 289 385T345 384Q368 384 382 385T416 386Q418 386 418 380T416 374Q389 374 358 354T297 294L222 192Z" />
<glyph unicode="y" horiz-adv-x="432" d="M434 386Q437 386 437 380T434 374Q406 374 387 353T351 288L232 -28Q196 -124 163 -179T95 -258T18 -281Q-5 -281 -20 -271T-36 -239Q-36 -221 -25 -213T0 -204Q19 -204 29 -210T49 -222T75 -228Q99 -228 121 -206T168
-132T226 12L225 -25L63 303Q41 347 29 360T-2 374Q-5 374 -5 380T-2 386Q15 386 34 385T70 384Q104 384 129 385T176 386Q178 386 178 380T176 374Q143 374 129 366T125 335L260 60L232 13L327 286Q343 332 328 353T263 374Q261 374 261 380T263 386Q287 386 308
385T364 384Q386 384 400 385T434 386Z" />
<glyph unicode="z" horiz-adv-x="405" d="M39 12L274 366Q278 373 269 373Q202 373 158 365T88 336T50 278Q49 276 44 277T39 281L75 418Q76 420 82 420T87 417Q82 398 93 392T135 386Q172 386 226 386T352 386Q357 386 359 382T360 374L127 23Q123 16 132 16Q195
16 235 20T299 35T338 66T361 119Q362 122 367 122T372 119L370 11Q370 7 368 4T361 0Q313 0 259 0T151 0T46 0Q42 0 40 4T39 12Z" />
<glyph unicode="{" horiz-adv-x="289" d="M32 298Q29 298 29 304T32 311Q65 316 80 349T100 430T105 529Q105 592 111 631T133 690T177 717T250 725Q254 725 254 719T250 713Q218 713 200 686T180 607Q179 527 176 476T163 393T131 342T69 305Q108 287 130 267T163
214T176 131T180 1Q182 -50 200 -77T250 -105Q254 -105 254 -111T250 -117Q204 -117 176 -110T132 -81T111 -22T105 80Q105 131 100 179T80 261T32 298Z" />
<glyph unicode="|" horiz-adv-x="168" d="M65 -154V731Q65 736 75 737T96 738T106 731V-154Q106 -159 96 -160T76 -161T65 -154Z" />
<glyph unicode="}" horiz-adv-x="283" d="M251 298Q218 294 203 261T183 180T178 80Q178 17 172 -21T151 -81T107 -109T33 -117Q29 -117 29 -111T33 -105Q66 -105 84 -78T103 1Q105 80 107 131T120 214T152 266T214 305Q175 322 153 342T120 393T108 475T103 607Q102
658 84 685T33 713Q29 713 29 719T33 725Q78 725 106 718T150 690T172 631T178 529Q178 479 183 431T203 349T251 311Q254 311 254 305T251 298Z" />
<glyph unicode="~" horiz-adv-x="443" d="M314 202Q346 202 361 214T389 241Q391 243 394 240T396 234Q372 199 354 181T320 156T287 149Q258 149 234 158T185 176T129 185Q100 185 87 175T55 146Q54 145 51 148T48 153Q59 169 76 189T116 223T164 238Q187 238
210 229T260 211T314 202Z" />
<glyph unicode="&#xa0;" horiz-adv-x="234" />
<glyph unicode="&#xa1;" horiz-adv-x="252" d="M131 365Q153 365 166 352T180 316Q180 295 167 283T131 270Q108 270 96 282T83 316Q83 339 95 352T131 365ZM179 -264Q180 -268 172 -270T151 -274T126 -275Q114 -275 101 -274T80 -271T73 -264Q87 -200 95 -126T109
24T118 165Q118 168 123 168T133 169T138 165Q142 99 146 24T158 -125T179 -264Z" />
<glyph unicode="&#xa2;" horiz-adv-x="535" d="M275 -102V561Q275 566 281 567T293 568T299 561V-102Q299 -106 293 -107T281 -108T275 -102ZM310 480Q345 480 389 473T462 451Q470 448 471 445T474 434L482 331Q482 328 477 327T470 330Q446 398 401 430T292
463Q241 463 202 436T142 361T120 251Q120 207 132 163T168 83T229 26T317 4Q375 4 415 37T479 140Q481 144 486 143T491 139L480 33Q479 25 477 22T466 15Q423 0 382 -6T306 -12Q229 -12 177 11T94 72T48 153T34 236Q34 306 70 361T169 448T310 480Z" />
<glyph unicode="&#xa3;" horiz-adv-x="432" d="M99 44H251Q294 44 316 49T350 73T368 126Q368 128 374 128T380 124Q376 103 374 73T371 15Q371 0 356 0H26Q23 0 23 5T26 12Q63 21 82 35T107 69T114 111Q113 150 106 178T91 230T77 278T70 330Q70 385 95 417T160
465T246 480Q265 480 288 477T336 465Q351 460 352 446L359 344Q359 340 354 340T347 344Q338 374 324 401T287 446T231 464Q198 464 179 449T151 411T143 364Q143 324 153 290T173 222T184 148Q184 115 174 93T149 57T116 30L99 44ZM50 242H274Q279 242 280 236T281
224T274 218H50Q46 218 45 224T44 236T50 242Z" />
<glyph unicode="&#xa4;" horiz-adv-x="414" d="M130 91L80 35L53 61L106 116L130 91ZM102 287L49 341L80 370L132 314L102 287ZM309 120L364 65L332 35L280 93L309 120ZM284 309L338 367L363 341L308 286L284 309ZM196 65Q153 65 123 85T77 137T61 202Q61 247
84 276T143 320T211 335Q250 335 281 318T330 270T349 201Q349 158 326 128T268 81T196 65ZM215 85Q247 85 267 109T287 180Q287 214 276 245T242 295T188 315Q159 315 140 293T120 223Q120 191 130 159T161 106T215 85Z" />
<glyph unicode="&#xa5;" horiz-adv-x="486" d="M106 150H382Q389 150 389 139T382 127H106Q99 127 99 138T106 150ZM106 213H382Q389 213 389 202T382 190H106Q99 190 99 201T106 213ZM243 196L339 367Q362 406 354 431T311 456Q308 456 308 462T311 468Q337 468
359 467T419 465Q439 465 451 466T480 468Q482 468 482 462T480 456Q448 456 418 433T362 366L261 192L243 196ZM221 193L97 385Q72 423 51 439T0 456Q-2 456 -2 462T0 468Q14 468 34 467T69 465Q93 465 118 466T166 467T204 468Q207 468 207 462T204 456Q174 456
163 445T169 409L283 235L221 193ZM283 136V81Q283 52 288 37T311 17T365 12Q367 12 367 6T365 0Q340 0 311 1T244 2Q212 2 181 1T124 0Q122 0 122 6T124 12Q160 12 178 17T202 37T208 81V136H283ZM208 200V228L283 237V200H208Z" />
<glyph unicode="&#xa6;" horiz-adv-x="168" d="M65 -154V216Q65 221 75 222T96 223T106 216V-154Q106 -159 96 -160T76 -161T65 -154ZM65 360V731Q65 736 75 737T96 738T106 731V360Q106 356 96 355T76 354T65 360Z" />
<glyph unicode="&#xa7;" horiz-adv-x="456" d="M307 11L299 20Q327 42 335 68T344 122Q344 167 327 198T283 253T226 295T169 334T125 379T107 441Q107 486 130 515T189 558T263 572Q291 572 312 567T350 553Q361 548 361 537L369 433Q369 430 364 430T357 433Q354
447 343 466T315 505T276 536T228 549Q202 549 185 532T167 478Q167 442 183 416T227 371T283 332T340 291T384 237T401 162Q401 136 394 113T366 66T307 11ZM215 -188Q188 -188 167 -183T128 -170Q124 -167 121 -163T116 -153L109 -49Q109 -47 114 -47T121 -49Q125
-63 136 -83T163 -121T202 -152T250 -165Q276 -165 294 -148T312 -94Q312 -57 295 -32T251 13T194 52T137 93T93 147T75 222Q75 249 82 271T110 318T169 373L177 364Q149 342 141 316T132 261Q132 217 149 186T194 131T252 89T310 50T354 5T372 -57Q372 -102 349
-131T290 -174T215 -188Z" />
<glyph unicode="&#xa8;" horiz-adv-x="322" d="M74 473Q53 473 41 485T28 519Q28 540 40 551T74 563Q95 563 107 552T119 519Q119 473 74 473ZM249 473Q228 473 216 485T203 519Q203 540 215 551T249 563Q294 563 294 519Q294 473 249 473Z" />
<glyph unicode="&#xa9;" horiz-adv-x="722" d="M373 -103Q318 -103 265 -85T167 -30T97 61T71 189Q71 259 98 316T172 414T278 477T402 500Q480 500 537 468T625 384T656 269Q656 209 624 156T534 71T405 39Q340 39 301 62T243 122T224 195Q224 249 250 287T316
344T398 364Q421 364 443 358T481 340T497 311Q497 297 489 287T464 277Q450 277 441 287T426 307Q416 322 405 333T369 345Q327 345 312 313T296 224Q296 182 310 146T357 88T444 66Q486 66 523 85T585 143T609 239Q609 305 578 358T493 444T370 477Q291 477 236
441T153 345T125 213Q125 143 149 90T213 1T302 -53T403 -71Q438 -71 468 -68T530 -54T597 -23Q599 -22 601 -25T601 -31Q543 -76 487 -89T373 -103Z" />
<glyph unicode="&#xaa;" horiz-adv-x="281" d="M37 286Q34 286 33 293T33 308T36 315H261Q264 315 265 308T265 294T261 286H37ZM210 366Q197 361 186 374T175 419V538Q175 572 170 587T154 607T133 612Q114 612 103 597T89 561Q87 551 82 542T60 532Q48 532 40
539T32 558Q32 570 45 583T79 606T121 623T160 630Q185 630 203 613T221 558V441Q221 407 232 401T272 407Q276 409 278 405T278 398L210 366ZM78 365Q57 365 45 376T32 404Q32 421 43 431T85 453L190 490L191 480L114 450Q100 444 93 438T86 420Q86 408 94 400T114
392Q121 392 127 394T138 398L196 427L197 416L139 385Q118 374 106 370T78 365Z" />
<glyph unicode="&#xab;" horiz-adv-x="462" d="M238 40L57 189Q53 194 53 201T57 212L238 361Q240 364 243 361T245 356L132 201L245 46Q246 44 243 41T238 40ZM396 40L215 189Q211 194 211 201T215 212L395 361Q398 364 401 361T403 356L290 201L402 46Q404 44
401 41T396 40Z" />
<glyph unicode="&#xac;" horiz-adv-x="395" d="M364 77Q364 74 354 73T333 73T322 76V269H364V77ZM34 227Q31 227 30 237T30 258T33 269H364V227H34Z" />
<glyph unicode="&#xad;" horiz-adv-x="0" />
<glyph unicode="&#xae;" horiz-adv-x="747" d="M366 138Q312 138 260 157T164 213T96 303T71 425Q71 492 97 547T169 642T273 703T396 725Q483 725 547 688T646 589T681 451Q681 385 657 328T589 229T489 162T366 138ZM237 272Q235 272 235 278T237 284Q266 284
273 291T281 328V544Q281 571 274 579T237 588Q235 588 235 594T237 600Q251 600 271 600T308 599Q327 599 350 600T390 602Q436 602 460 587T484 536Q484 500 463 476T405 440T318 431V450Q376 441 403 454T430 513Q430 554 415 571T373 589Q350 589 341 583T332
541V328Q332 299 340 292T380 284Q382 284 382 278T380 272Q366 272 348 273T308 274Q291 274 270 273T237 272ZM397 166Q472 166 525 198T606 287T634 421Q634 504 599 567T502 666T362 702Q280 702 227 668T147 577T120 454Q120 387 143 333T207 242T296 186T397
166ZM478 272Q468 272 443 317T381 436L428 450Q457 394 477 359T518 305T563 281Q565 280 565 276T563 272Q531 272 510 272T478 272Z" />
<glyph unicode="&#xaf;" horiz-adv-x="345" d="M47 480Q43 480 41 488T41 503T47 511H298Q303 511 305 504T305 488T298 480H47Z" />
<glyph unicode="&#xb0;" horiz-adv-x="332" d="M167 373Q105 373 67 410T29 503Q29 538 46 566T94 612T167 630Q229 630 266 593T303 501Q303 447 266 410T167 373ZM174 385Q203 385 217 399T235 437T240 494Q240 618 161 618Q132 618 118 604T99 564T93 506Q93
454 109 420T174 385Z" />
<glyph unicode="&#xb1;" horiz-adv-x="398" d="M34 1Q31 1 30 10T30 29T33 39H364Q367 39 368 30T368 11T364 1H34ZM34 231Q31 231 30 242T30 263T33 274H364Q367 274 368 264T368 242T364 231H34ZM220 88Q220 85 210 84T188 84T177 87V418Q177 421 188 421T209
422T220 418V88Z" />
<glyph unicode="&#xb2;" horiz-adv-x="251" d="M28 408Q35 437 50 462T82 509T115 554T141 598T151 647Q151 678 138 692T104 706Q80 706 63 690T39 650Q38 647 33 648T28 653Q37 684 59 706T125 729Q167 729 187 708T207 657Q207 627 189 601T144 549T95 499T64
451Q63 448 66 448Q113 448 140 449T181 455T202 470T212 497Q212 499 216 499T220 497L219 407Q219 403 215 403Q175 403 125 403T31 403Q26 403 28 408Z" />
<glyph unicode="&#xb3;" horiz-adv-x="251" d="M122 567L121 576Q161 573 191 555T221 496Q221 472 209 449T174 411T115 396Q75 396 53 416T22 465Q21 469 27 470T34 468Q41 450 58 434T105 418Q128 418 146 432T164 487Q164 524 144 544T89 565Q86 565 86 570T89
576Q110 576 124 586T144 613T151 647Q151 674 138 689T102 704Q80 704 63 688T40 650Q39 647 33 648T28 653Q37 685 60 707T124 729Q165 729 186 708T208 656Q208 633 196 614T164 583T122 567Z" />
<glyph unicode="&#xb4;" horiz-adv-x="212" d="M69 474Q68 471 63 472T58 476L104 716Q106 719 117 722T143 728T168 731T176 727L69 474Z" />
<glyph unicode="&#xb6;" horiz-adv-x="644" d="M339 -193Q307 -193 288 -180T269 -145Q269 -129 278 -118T306 -107Q327 -107 334 -117T345 -139T355 -162T378 -172Q395 -172 405 -155T419 -98T424 8V125Q408 124 392 123T355 122Q303 122 250 135T152 179T81
260T54 386Q54 507 128 567T329 628Q362 628 398 625T477 622Q505 622 533 623T587 625Q590 625 590 619T587 613Q544 613 521 592T498 532L499 55Q499 -74 462 -133T339 -193Z" />
<glyph unicode="&#xb7;" horiz-adv-x="195" d="M97 152Q75 152 62 165T48 201Q48 222 61 234T97 247Q121 247 133 235T145 201Q145 178 133 165T97 152Z" />
<glyph unicode="&#xb8;" horiz-adv-x="232" d="M116 -2Q107 -33 106 -49T115 -75T148 -99Q169 -111 186 -129T203 -176Q203 -198 192 -221T157 -259T93 -275Q63 -275 45 -265T26 -234Q26 -220 36 -211T59 -201Q75 -201 81 -209T92 -227T103 -246T127 -254Q158
-254 158 -220Q158 -194 140 -174T73 -127Q62 -121 61 -116T65 -97Q74 -77 78 -66T87 -41T102 -1L116 -2Z" />
<glyph unicode="&#xb9;" horiz-adv-x="262" d="M44 403Q42 403 42 408T44 414Q74 414 88 418T106 437T110 483V601Q110 645 108 663T91 679T38 660Q34 659 31 664T32 671L154 728Q158 730 161 727T164 721V484Q164 453 167 438T184 418T226 414Q229 414 229 409T226
403Q208 403 186 404T138 405Q111 405 87 404T44 403Z" />
<glyph unicode="&#xba;" horiz-adv-x="318" d="M39 286Q36 286 35 293T35 308T38 315H281Q284 315 285 308T285 294T281 286H39ZM155 359Q116 359 87 378T43 429T27 498Q27 543 48 572T102 615T166 630Q207 630 235 611T278 561T293 495Q293 457 274 426T224 377T155
359ZM170 374Q201 374 220 401T239 477Q239 534 214 574T148 614Q115 614 98 589T80 517Q80 480 92 447T124 394T170 374Z" />
<glyph unicode="&#xbb;" horiz-adv-x="462" d="M224 361L405 212Q409 208 409 201T405 189L224 40Q223 37 220 40T217 46L330 200L217 356Q216 358 219 361T224 361ZM66 361L247 212Q252 208 252 201T247 189L66 40Q65 37 62 40T59 46L173 200L59 356Q58 358 61
361T66 361Z" />
<glyph unicode="&#xbc;" horiz-adv-x="602" d="M44 309Q42 309 42 314T44 320Q74 320 88 324T106 343T110 389V508Q110 551 108 568T91 585T38 566Q34 565 31 570T32 577L154 634Q158 636 161 633T164 627V389Q164 358 167 343T184 324T226 320Q229 320 229 315T226
309Q208 309 186 310T138 311Q112 311 88 310T44 309ZM185 0Q185 -2 178 0T165 6T159 11L438 628Q440 630 446 628T459 623T465 617L185 0ZM534 41Q534 22 539 17T577 11Q578 11 578 5T577 -1Q562 -1 548 -1T513 0Q489 0 469 0T431 -1Q430 -1 430 5T431 11Q466
11 475 16T484 41V266L500 278L391 112Q389 109 393 109Q436 109 465 110T519 112T577 115Q579 115 579 102T577 88Q534 90 485 92T359 94Q356 94 354 97T355 102L514 322Q517 326 525 325T534 321V41Z" />
<glyph unicode="&#xbd;" horiz-adv-x="610" d="M44 309Q42 309 42 314T44 320Q74 320 88 324T106 343T110 389V508Q110 551 108 568T91 585T38 566Q34 565 31 570T32 577L154 634Q158 636 161 633T164 627V389Q164 358 167 343T184 324T226 320Q229 320 229 315T226
309Q208 309 186 310T138 311Q112 311 88 310T44 309ZM185 0Q185 -2 178 0T165 6T159 11L438 628Q440 630 446 628T459 623T465 617L185 0ZM387 6Q394 35 409 59T441 106T474 151T500 196T510 245Q510 274 497 288T463 302Q439 302 422 287T398 248Q397 244 392
245T387 250Q396 281 418 303T484 326Q526 326 546 306T566 255Q566 225 548 198T503 146T454 96T423 48Q422 45 425 45Q472 45 499 46T540 53T561 67T571 94Q571 96 575 96T579 94L578 5Q578 0 574 0Q534 0 484 0T390 0Q386 0 387 6Z" />
<glyph unicode="&#xbe;" horiz-adv-x="591" d="M122 474L121 482Q161 479 191 460T221 402Q221 378 209 355T174 318T115 303Q75 303 53 322T22 372Q21 375 27 376T34 374Q41 355 58 340T105 324Q128 324 146 339T164 392Q164 430 144 450T89 470Q86 470 86 476T89
482Q110 482 124 492T144 519T151 553Q151 579 138 594T102 610Q80 610 63 594T40 557Q39 553 33 554T28 559Q37 590 60 612T124 635Q165 635 186 614T208 562Q208 539 196 520T164 489T122 474ZM174 0Q174 -2 167 0T154 6T148 11L427 628Q429 630 435 628T448
623T454 617L174 0ZM523 41Q523 22 528 17T566 11Q567 11 567 5T566 -1Q551 -1 537 -1T502 0Q478 0 458 0T420 -1Q419 -1 419 5T420 11Q455 11 464 16T473 41V266L489 278L380 112Q378 109 382 109Q425 109 454 110T508 112T566 115Q568 115 568 102T566 88Q523
90 474 92T348 94Q345 94 343 97T344 102L503 322Q506 326 514 325T523 321V41Z" />
<glyph unicode="&#xbf;" horiz-adv-x="327" d="M178 361Q200 361 213 348T227 312Q227 291 214 279T178 266Q155 266 143 278T130 312Q130 335 142 348T178 361ZM166 -260Q190 -260 196 -246T205 -215Q206 -204 210 -192T223 -172T249 -163Q270 -163 279 -175T288
-201Q288 -231 252 -253T164 -275Q126 -275 94 -262T43 -222T23 -155Q23 -122 35 -99T67 -58T106 -22Q139 10 153 38T167 102Q167 114 166 127T162 156Q161 159 167 160T175 159Q187 131 194 96T201 39Q201 11 191 -8T167 -43T139 -75T114 -113T104 -168Q104 -208
121 -234T166 -260Z" />
<glyph unicode="&#xc0;" horiz-adv-x="706" d="M215 321L230 344H436L443 321H215ZM704 12Q709 12 709 6T704 0Q675 0 645 2T585 4Q553 4 530 2T477 0Q473 0 473 6T477 12Q526 12 537 27T526 89L311 536L343 584L148 132Q122 71 145 42T231 12Q236 12 236 6T231
0Q201 0 176 2T113 4Q76 4 54 2T-1 0Q-5 0 -5 6T-1 12Q26 12 46 22T84 61T125 141L338 632Q339 635 345 635T352 632L592 137Q616 88 633 61T668 23T704 12ZM444 679Q393 702 341 721T222 756Q215 757 224 763T249 775T279 786T298 787Q334 764 370 739T448 689Q452
688 451 683T444 679Z" />
<glyph unicode="&#xc1;" horiz-adv-x="706" d="M215 321L230 344H436L443 321H215ZM704 12Q709 12 709 6T704 0Q675 0 645 2T585 4Q553 4 530 2T477 0Q473 0 473 6T477 12Q526 12 537 27T526 89L311 536L343 584L148 132Q122 71 145 42T231 12Q236 12 236 6T231
0Q201 0 176 2T113 4Q76 4 54 2T-1 0Q-5 0 -5 6T-1 12Q26 12 46 22T84 61T125 141L338 632Q339 635 345 635T352 632L592 137Q616 88 633 61T668 23T704 12ZM248 679Q244 677 242 682T243 689Q287 713 322 738T394 787Q398 790 412 786T443 776T468 763T470 756Q403
740 351 721T248 679Z" />
<glyph unicode="&#xc2;" horiz-adv-x="706" d="M215 321L230 344H436L443 321H215ZM704 12Q709 12 709 6T704 0Q675 0 645 2T585 4Q553 4 530 2T477 0Q473 0 473 6T477 12Q526 12 537 27T526 89L311 536L343 584L148 132Q122 71 145 42T231 12Q236 12 236 6T231
0Q201 0 176 2T113 4Q76 4 54 2T-1 0Q-5 0 -5 6T-1 12Q26 12 46 22T84 61T125 141L338 632Q339 635 345 635T352 632L592 137Q616 88 633 61T668 23T704 12ZM230 687L333 789Q338 794 345 794T356 789L458 687Q461 686 458 683T453 680L345 731L236 680Q235 679
232 682T230 687Z" />
<glyph unicode="&#xc3;" horiz-adv-x="706" d="M215 321L230 344H436L443 321H215ZM704 12Q709 12 709 6T704 0Q675 0 645 2T585 4Q553 4 530 2T477 0Q473 0 473 6T477 12Q526 12 537 27T526 89L311 536L343 584L148 132Q122 71 145 42T231 12Q236 12 236 6T231
0Q201 0 176 2T113 4Q76 4 54 2T-1 0Q-5 0 -5 6T-1 12Q26 12 46 22T84 61T125 141L338 632Q339 635 345 635T352 632L592 137Q616 88 633 61T668 23T704 12ZM421 757Q440 757 450 764T471 784Q473 786 476 783T478 777Q451 736 434 723T398 709Q377 709 357 715T315
728T269 734Q248 734 239 726T219 707Q217 706 214 708T212 714Q220 726 233 742T263 769T297 781Q314 781 333 775T375 763T421 757Z" />
<glyph unicode="&#xc4;" horiz-adv-x="706" d="M215 321L230 344H436L443 321H215ZM704 12Q709 12 709 6T704 0Q675 0 645 2T585 4Q553 4 530 2T477 0Q473 0 473 6T477 12Q526 12 537 27T526 89L311 536L343 584L148 132Q122 71 145 42T231 12Q236 12 236 6T231
0Q201 0 176 2T113 4Q76 4 54 2T-1 0Q-5 0 -5 6T-1 12Q26 12 46 22T84 61T125 141L338 632Q339 635 345 635T352 632L592 137Q616 88 633 61T668 23T704 12ZM258 712Q237 712 225 724T212 758Q212 779 224 790T258 802Q279 802 291 791T303 758Q303 712 258 712ZM433
712Q412 712 400 724T387 758Q387 779 399 790T433 802Q478 802 478 758Q478 712 433 712Z" />
<glyph unicode="&#xc5;" horiz-adv-x="706" d="M215 321L230 344H436L443 321H215ZM704 12Q709 12 709 6T704 0Q675 0 645 2T585 4Q553 4 530 2T477 0Q473 0 473 6T477 12Q526 12 537 27T526 89L311 536L343 584L148 132Q122 71 145 42T231 12Q236 12 236 6T231
0Q201 0 176 2T113 4Q76 4 54 2T-1 0Q-5 0 -5 6T-1 12Q26 12 46 22T84 61T125 141L338 632Q339 635 345 635T352 632L592 137Q616 88 633 61T668 23T704 12ZM339 663Q295 663 270 687T245 742Q245 768 261 785T301 810T349 819Q387 819 414 796T442 740Q442 716
427 699T388 672T339 663ZM354 675Q388 675 388 722Q388 757 371 782T329 808Q299 808 299 762Q299 742 305 722T324 689T354 675Z" />
<glyph unicode="&#xc6;" horiz-adv-x="879" d="M0 0Q-4 0 -4 6T0 12Q34 12 71 42T149 132L448 574Q467 600 457 606T384 613Q381 613 381 619T384 625H788Q798 625 798 616L800 490Q800 487 795 487T788 489Q786 517 770 543T728 585T670 601H619Q591 601 575
597T553 579T546 543V85Q546 61 552 48T572 29T614 23H679Q711 23 739 40T789 86T819 152Q819 155 824 154T830 150Q827 123 824 85T821 15Q821 0 806 0H389Q387 0 387 6T389 12Q423 12 440 17T464 37T470 81V588L498 604L181 130Q143 72 155 42T229 12Q234 12
234 6T229 0Q197 0 170 2T101 4Q68 4 48 2T0 0ZM290 314L305 337H522L529 314H290ZM750 230Q750 273 726 293T648 314H498V337H650Q702 337 725 354T748 409Q748 411 754 411T760 409Q760 378 760 361T759 325Q759 302 760 279T761 230Q761 228 756 228T750 230Z"
/>
<glyph unicode="&#xc7;" horiz-adv-x="669" d="M417 636Q461 636 510 628T590 604Q598 599 601 595T605 580L616 460Q616 457 611 456T605 459Q579 538 520 575T378 613Q304 613 251 580T169 486T140 344Q140 274 160 212T218 104T303 31T408 4Q476 4 529 44T614
168Q615 172 620 171T626 167L612 47Q610 35 608 32T596 24Q548 5 501 -3T408 -12Q312 -12 244 17T132 95T69 202T49 317Q49 390 79 448T161 548T279 613T417 636ZM392 -2Q383 -33 382 -49T391 -75T424 -99Q445 -111 462 -129T479 -176Q479 -198 468 -221T433 -259T369
-275Q339 -275 321 -265T302 -234Q302 -220 312 -211T335 -201Q351 -201 357 -209T368 -227T379 -246T403 -254Q434 -254 434 -220Q434 -194 416 -174T349 -127Q338 -121 337 -116T341 -97Q350 -77 354 -66T363 -41T378 -1L392 -2Z" />
<glyph unicode="&#xc8;" horiz-adv-x="542" d="M469 0H43Q40 0 40 6T43 12Q77 12 94 17T118 37T124 81V544Q124 573 118 587T95 607T43 613Q40 613 40 619T43 625H451Q461 625 461 616L463 490Q463 487 458 487T451 489Q444 544 412 572T328 601H277Q247 601 231
596T209 578T203 540V85Q203 61 208 48T229 29T271 23H337Q394 23 431 56T482 152Q482 155 488 154T494 150Q490 123 487 85T484 15Q484 0 469 0ZM413 230Q413 273 389 293T310 314H165V337H313Q364 337 388 354T412 409Q412 411 417 411T423 409Q423 378 423 361T422
325Q422 302 423 279T425 230Q425 228 419 228T413 230ZM393 679Q342 702 290 721T171 756Q164 757 173 763T198 775T228 786T247 787Q283 764 319 739T397 689Q401 688 400 683T393 679Z" />
<glyph unicode="&#xc9;" horiz-adv-x="542" d="M469 0H43Q40 0 40 6T43 12Q77 12 94 17T118 37T124 81V544Q124 573 118 587T95 607T43 613Q40 613 40 619T43 625H451Q461 625 461 616L463 490Q463 487 458 487T451 489Q444 544 412 572T328 601H277Q247 601 231
596T209 578T203 540V85Q203 61 208 48T229 29T271 23H337Q394 23 431 56T482 152Q482 155 488 154T494 150Q490 123 487 85T484 15Q484 0 469 0ZM413 230Q413 273 389 293T310 314H165V337H313Q364 337 388 354T412 409Q412 411 417 411T423 409Q423 378 423 361T422
325Q422 302 423 279T425 230Q425 228 419 228T413 230ZM197 679Q193 677 191 682T192 689Q236 713 271 738T343 787Q347 790 361 786T392 776T417 763T419 756Q352 740 300 721T197 679Z" />
<glyph unicode="&#xca;" horiz-adv-x="542" d="M469 0H43Q40 0 40 6T43 12Q77 12 94 17T118 37T124 81V544Q124 573 118 587T95 607T43 613Q40 613 40 619T43 625H451Q461 625 461 616L463 490Q463 487 458 487T451 489Q444 544 412 572T328 601H277Q247 601 231
596T209 578T203 540V85Q203 61 208 48T229 29T271 23H337Q394 23 431 56T482 152Q482 155 488 154T494 150Q490 123 487 85T484 15Q484 0 469 0ZM413 230Q413 273 389 293T310 314H165V337H313Q364 337 388 354T412 409Q412 411 417 411T423 409Q423 378 423 361T422
325Q422 302 423 279T425 230Q425 228 419 228T413 230ZM180 695L283 799Q288 804 295 804T306 799L408 696Q411 694 408 691T403 688L295 740L186 688Q185 687 182 690T180 695Z" />
<glyph unicode="&#xcb;" horiz-adv-x="542" d="M469 0H43Q40 0 40 6T43 12Q77 12 94 17T118 37T124 81V544Q124 573 118 587T95 607T43 613Q40 613 40 619T43 625H451Q461 625 461 616L463 490Q463 487 458 487T451 489Q444 544 412 572T328 601H277Q247 601 231
596T209 578T203 540V85Q203 61 208 48T229 29T271 23H337Q394 23 431 56T482 152Q482 155 488 154T494 150Q490 123 487 85T484 15Q484 0 469 0ZM413 230Q413 273 389 293T310 314H165V337H313Q364 337 388 354T412 409Q412 411 417 411T423 409Q423 378 423 361T422
325Q422 302 423 279T425 230Q425 228 419 228T413 230ZM207 712Q186 712 174 724T161 758Q161 779 173 790T207 802Q228 802 240 791T252 758Q252 712 207 712ZM382 712Q361 712 349 724T336 758Q336 779 348 790T382 802Q427 802 427 758Q427 712 382 712Z" />
<glyph unicode="&#xcc;" horiz-adv-x="335" d="M208 81Q208 52 213 37T236 17T289 12Q291 12 291 6T289 0Q264 0 234 1T167 2Q132 2 101 1T45 0Q43 0 43 6T45 12Q80 12 98 17T122 37T128 81V544Q128 573 122 587T98 607T45 613Q43 613 43 619T45 625Q70 625 101
624T167 622Q203 622 234 623T289 625Q291 625 291 619T289 613Q254 613 237 607T214 586T208 542V81ZM267 679Q216 702 164 721T45 756Q38 757 47 763T72 775T102 786T121 787Q157 764 193 739T271 689Q275 688 274 683T267 679Z" />
<glyph unicode="&#xcd;" horiz-adv-x="335" d="M208 81Q208 52 213 37T236 17T289 12Q291 12 291 6T289 0Q264 0 234 1T167 2Q132 2 101 1T45 0Q43 0 43 6T45 12Q80 12 98 17T122 37T128 81V544Q128 573 122 587T98 607T45 613Q43 613 43 619T45 625Q70 625 101
624T167 622Q203 622 234 623T289 625Q291 625 291 619T289 613Q254 613 237 607T214 586T208 542V81ZM71 679Q67 677 65 682T66 689Q110 713 145 738T217 787Q221 790 235 786T266 776T291 763T293 756Q226 740 174 721T71 679Z" />
<glyph unicode="&#xce;" horiz-adv-x="335" d="M208 81Q208 52 213 37T236 17T289 12Q291 12 291 6T289 0Q264 0 234 1T167 2Q132 2 101 1T45 0Q43 0 43 6T45 12Q80 12 98 17T122 37T128 81V544Q128 573 122 587T98 607T45 613Q43 613 43 619T45 625Q70 625 101
624T167 622Q203 622 234 623T289 625Q291 625 291 619T289 613Q254 613 237 607T214 586T208 542V81ZM54 695L157 799Q162 804 169 804T180 799L282 696Q285 694 282 691T277 688L169 740L60 688Q59 687 56 690T54 695Z" />
<glyph unicode="&#xcf;" horiz-adv-x="335" d="M208 81Q208 52 213 37T236 17T289 12Q291 12 291 6T289 0Q264 0 234 1T167 2Q132 2 101 1T45 0Q43 0 43 6T45 12Q80 12 98 17T122 37T128 81V544Q128 573 122 587T98 607T45 613Q43 613 43 619T45 625Q70 625 101
624T167 622Q203 622 234 623T289 625Q291 625 291 619T289 613Q254 613 237 607T214 586T208 542V81ZM95 712Q74 712 62 724T49 758Q49 779 61 790T95 802Q117 802 129 791T141 758Q141 736 129 724T95 712ZM241 712Q219 712 207 724T195 758Q195 779 207 790T241
802Q286 802 286 758Q286 712 241 712Z" />
<glyph unicode="&#xd0;" horiz-adv-x="696" d="M53 300Q50 300 49 305T49 316T53 322H331Q334 322 334 317T335 306T331 300H53ZM310 -4Q280 -4 236 -1T155 2Q121 2 90 1T33 0Q31 0 31 6T33 12Q68 12 86 17T110 37T116 81V544Q116 573 110 587T87 607T35 613Q32
613 32 619T35 625Q60 625 90 624T155 622Q189 622 228 624T296 627Q402 627 480 587T603 478T647 323Q647 248 621 188T547 85T439 19T310 -4ZM300 14Q375 14 432 47T523 144T556 301Q556 388 525 457T439 568T306 610Q246 610 221 598T195 542V92Q195 52 215
33T300 14Z" />
<glyph unicode="&#xd1;" horiz-adv-x="730" d="M122 114V602L148 600V114Q148 62 167 37T227 12Q229 12 229 6T227 0Q206 0 185 1T136 2Q110 2 85 1T38 0Q36 0 36 6T38 12Q82 12 102 37T122 114ZM628 -13Q628 -15 624 -15T617 -15L146 543Q111 584 86 598T35 613Q33
613 33 619T35 625Q54 625 73 624T108 623Q132 623 152 624T182 625Q195 625 201 614T230 573L620 103L628 -13ZM628 510V-13L603 18V510Q603 562 585 587T525 613Q523 613 523 619T525 625Q546 625 568 624T616 622Q641 622 665 623T710 625Q712 625 712 619T710
613Q668 613 648 588T628 510ZM454 757Q473 757 483 764T504 784Q506 786 509 783T511 777Q484 736 467 723T431 709Q410 709 390 715T348 728T302 734Q281 734 272 726T252 707Q250 706 247 708T245 714Q253 726 266 742T296 769T330 781Q347 781 366 775T408
763T454 757Z" />
<glyph unicode="&#xd2;" horiz-adv-x="766" d="M366 -12Q294 -12 236 13T136 84T72 187T49 312Q49 393 80 454T164 555T278 616T401 636Q475 636 533 610T633 538T695 436T717 319Q717 249 689 189T613 84T501 14T366 -12ZM401 10Q464 10 515 42T596 137T626 291Q626
384 594 456T502 570T360 612Q255 612 198 541T140 347Q140 276 158 215T212 107T295 36T401 10ZM485 679Q434 702 382 721T263 756Q256 757 265 763T290 775T320 786T339 787Q375 764 411 739T489 689Q493 688 492 683T485 679Z" />
<glyph unicode="&#xd3;" horiz-adv-x="766" d="M366 -12Q294 -12 236 13T136 84T72 187T49 312Q49 393 80 454T164 555T278 616T401 636Q475 636 533 610T633 538T695 436T717 319Q717 249 689 189T613 84T501 14T366 -12ZM401 10Q464 10 515 42T596 137T626 291Q626
384 594 456T502 570T360 612Q255 612 198 541T140 347Q140 276 158 215T212 107T295 36T401 10ZM289 679Q285 677 283 682T284 689Q328 713 363 738T435 787Q439 790 453 786T484 776T509 763T511 756Q444 740 392 721T289 679Z" />
<glyph unicode="&#xd4;" horiz-adv-x="766" d="M366 -12Q294 -12 236 13T136 84T72 187T49 312Q49 393 80 454T164 555T278 616T401 636Q475 636 533 610T633 538T695 436T717 319Q717 249 689 189T613 84T501 14T366 -12ZM401 10Q464 10 515 42T596 137T626 291Q626
384 594 456T502 570T360 612Q255 612 198 541T140 347Q140 276 158 215T212 107T295 36T401 10ZM272 695L375 799Q380 804 387 804T398 799L500 696Q503 694 500 691T495 688L387 740L278 688Q277 687 274 690T272 695Z" />
<glyph unicode="&#xd5;" horiz-adv-x="766" d="M366 -12Q294 -12 236 13T136 84T72 187T49 312Q49 393 80 454T164 555T278 616T401 636Q475 636 533 610T633 538T695 436T717 319Q717 249 689 189T613 84T501 14T366 -12ZM401 10Q464 10 515 42T596 137T626 291Q626
384 594 456T502 570T360 612Q255 612 198 541T140 347Q140 276 158 215T212 107T295 36T401 10ZM462 757Q481 757 491 764T512 784Q514 786 517 783T519 777Q492 736 475 723T439 709Q418 709 398 715T356 728T310 734Q289 734 280 726T260 707Q258 706 255 708T253
714Q261 726 274 742T304 769T338 781Q355 781 374 775T416 763T462 757Z" />
<glyph unicode="&#xd6;" horiz-adv-x="766" d="M366 -12Q294 -12 236 13T136 84T72 187T49 312Q49 393 80 454T164 555T278 616T401 636Q475 636 533 610T633 538T695 436T717 319Q717 249 689 189T613 84T501 14T366 -12ZM401 10Q464 10 515 42T596 137T626 291Q626
384 594 456T502 570T360 612Q255 612 198 541T140 347Q140 276 158 215T212 107T295 36T401 10ZM299 712Q278 712 266 724T253 758Q253 779 265 790T299 802Q320 802 332 791T344 758Q344 712 299 712ZM474 712Q453 712 441 724T428 758Q428 779 440 790T474 802Q519
802 519 758Q519 712 474 712Z" />
<glyph unicode="&#xd7;" horiz-adv-x="387" d="M92 58Q91 56 83 62T67 77T61 87L295 321Q298 323 306 316T321 301T325 291L92 58ZM62 292Q61 294 67 302T82 317T91 322L325 89Q328 87 321 79T306 63T295 58L62 292Z" />
<glyph unicode="&#xd8;" horiz-adv-x="776" d="M83 -8Q82 -10 78 -7T69 1T67 9L680 631Q683 633 692 627T697 616L83 -8ZM366 -12Q294 -12 236 13T136 84T72 187T49 312Q49 393 80 454T164 555T278 616T401 636Q475 636 533 610T633 538T695 436T717 319Q717 249
689 189T613 84T501 14T366 -12ZM401 10Q464 10 515 42T596 137T626 291Q626 384 594 456T502 570T360 612Q255 612 198 541T140 347Q140 276 158 215T212 107T295 36T401 10Z" />
<glyph unicode="&#xd9;" horiz-adv-x="700" d="M572 510Q572 560 550 586T483 613Q480 613 480 619T483 625Q506 625 531 624T585 622Q610 622 634 623T680 625Q682 625 682 619T680 613Q640 613 620 587T599 510V227Q599 152 569 98T485 16T359 -13Q285 -13 229
15T142 97T111 223V544Q111 573 105 587T82 607T30 613Q27 613 27 619T30 625Q55 625 85 624T150 622Q186 622 216 623T270 625Q273 625 273 619T270 613Q236 613 219 607T196 586T190 542V258Q190 138 242 79T386 19Q474 19 523 73T572 226V510ZM473 679Q422 702
370 721T251 756Q244 757 253 763T278 775T308 786T327 787Q363 764 399 739T477 689Q481 688 480 683T473 679Z" />
<glyph unicode="&#xda;" horiz-adv-x="700" d="M572 510Q572 560 550 586T483 613Q480 613 480 619T483 625Q506 625 531 624T585 622Q610 622 634 623T680 625Q682 625 682 619T680 613Q640 613 620 587T599 510V227Q599 152 569 98T485 16T359 -13Q285 -13 229
15T142 97T111 223V544Q111 573 105 587T82 607T30 613Q27 613 27 619T30 625Q55 625 85 624T150 622Q186 622 216 623T270 625Q273 625 273 619T270 613Q236 613 219 607T196 586T190 542V258Q190 138 242 79T386 19Q474 19 523 73T572 226V510ZM277 679Q273 677
271 682T272 689Q316 713 351 738T423 787Q427 790 441 786T472 776T497 763T499 756Q432 740 380 721T277 679Z" />
<glyph unicode="&#xdb;" horiz-adv-x="700" d="M572 510Q572 560 550 586T483 613Q480 613 480 619T483 625Q506 625 531 624T585 622Q610 622 634 623T680 625Q682 625 682 619T680 613Q640 613 620 587T599 510V227Q599 152 569 98T485 16T359 -13Q285 -13 229
15T142 97T111 223V544Q111 573 105 587T82 607T30 613Q27 613 27 619T30 625Q55 625 85 624T150 622Q186 622 216 623T270 625Q273 625 273 619T270 613Q236 613 219 607T196 586T190 542V258Q190 138 242 79T386 19Q474 19 523 73T572 226V510ZM260 695L363 799Q368
804 375 804T386 799L488 696Q491 694 488 691T483 688L375 740L266 688Q265 687 262 690T260 695Z" />
<glyph unicode="&#xdc;" horiz-adv-x="700" d="M572 510Q572 560 550 586T483 613Q480 613 480 619T483 625Q506 625 531 624T585 622Q610 622 634 623T680 625Q682 625 682 619T680 613Q640 613 620 587T599 510V227Q599 152 569 98T485 16T359 -13Q285 -13 229
15T142 97T111 223V544Q111 573 105 587T82 607T30 613Q27 613 27 619T30 625Q55 625 85 624T150 622Q186 622 216 623T270 625Q273 625 273 619T270 613Q236 613 219 607T196 586T190 542V258Q190 138 242 79T386 19Q474 19 523 73T572 226V510ZM287 712Q266 712
254 724T241 758Q241 779 253 790T287 802Q308 802 320 791T332 758Q332 712 287 712ZM462 712Q441 712 429 724T416 758Q416 779 428 790T462 802Q507 802 507 758Q507 712 462 712Z" />
<glyph unicode="&#xdd;" horiz-adv-x="612" d="M306 285L448 508Q478 558 470 585T417 613Q414 613 414 619T417 625Q446 625 471 624T539 622Q564 622 579 623T617 625Q619 625 619 619T617 613Q595 613 569 600T519 562T473 503L325 269L306 285ZM281 272L110
528Q77 577 53 595T1 613Q-2 613 -2 619T1 625Q17 625 35 624T69 622Q97 622 124 622T175 624T218 625Q220 625 220 619T218 613Q182 613 174 599T182 561L344 318L281 272ZM269 310L349 319V81Q349 52 354 37T377 17T429 12Q432 12 432 6T429 0Q405 0 375 1T308
2Q274 2 243 1T187 0Q184 0 184 6T187 12Q222 12 239 17T263 37T269 81V310ZM223 679Q219 677 217 682T218 689Q262 713 297 738T369 787Q373 790 387 786T418 776T443 763T445 756Q378 740 326 721T223 679Z" />
<glyph unicode="&#xde;" horiz-adv-x="541" d="M119 544Q119 573 113 587T91 607T43 613Q40 613 40 619T43 625Q67 625 96 624T159 622Q203 622 240 623T310 625Q312 625 312 619T310 613Q262 613 238 607T206 586T198 539V85Q198 55 205 40T237 18T310 12Q312
12 312 6T310 0Q277 0 240 1T159 2Q126 2 97 1T43 0Q40 0 40 6T43 12Q75 12 91 17T113 37T119 81V544ZM149 483Q182 492 221 495T290 499Q349 499 397 484T475 433T506 336Q508 283 488 245T436 182T366 145T290 133Q277 133 265 134T241 138Q237 139 238 145T243
151Q252 150 261 149T279 147Q315 147 346 165T397 220T417 316Q417 398 375 440T265 482Q236 482 209 478T158 467L149 483Z" />
<glyph unicode="&#xdf;" horiz-adv-x="527" d="M358 -11Q336 -11 315 -5T269 18Q267 20 265 23T263 30L261 126Q261 129 266 129T273 127Q287 91 305 65T345 24T386 9Q412 9 426 31T437 85Q435 124 409 154T352 215Q320 247 292 282T264 361Q264 395 278 420T310
469T343 522T357 591Q357 618 349 645T323 691T270 710Q212 710 183 640T154 446V81Q154 38 165 25T215 12Q217 12 217 6T215 0Q190 0 167 0T120 1Q92 1 66 1T19 0Q16 0 16 6T19 12Q60 12 72 25T85 81L84 448Q84 581 140 653T301 726Q347 726 375 712T418 676T432
628Q432 599 420 577T390 536T353 500T323 462T310 418Q310 383 338 350T400 283Q425 259 447 234T485 181T500 124Q500 92 482 61T433 9T358 -11Z" />
<glyph unicode="&#xe0;" horiz-adv-x="420" d="M316 -6Q312 -8 307 -8Q292 -8 279 14T265 79V255Q265 299 258 325T237 362T205 374Q183 374 168 363T146 334T135 293Q133 274 124 262T91 249Q73 249 63 258T53 283Q53 302 72 321T120 358T180 385T239 395Q279
395 306 369T333 285V108Q333 75 342 59T371 43Q388 43 415 54Q419 56 421 51T419 43L316 -6ZM115 -7Q83 -7 66 10T49 53Q49 84 73 100T150 134L275 177L278 165L176 126Q152 117 142 106T132 78Q132 57 144 45T175 33Q185 33 196 36T219 44L295 84L296 70L210
23Q181 8 159 1T115 -7ZM109 727Q108 731 118 731T143 729T169 723T182 716L227 476Q228 474 223 473T217 474L109 727Z" />
<glyph unicode="&#xe1;" horiz-adv-x="420" d="M316 -6Q312 -8 307 -8Q292 -8 279 14T265 79V255Q265 299 258 325T237 362T205 374Q183 374 168 363T146 334T135 293Q133 274 124 262T91 249Q73 249 63 258T53 283Q53 302 72 321T120 358T180 385T239 395Q279
395 306 369T333 285V108Q333 75 342 59T371 43Q388 43 415 54Q419 56 421 51T419 43L316 -6ZM115 -7Q83 -7 66 10T49 53Q49 84 73 100T150 134L275 177L278 165L176 126Q152 117 142 106T132 78Q132 57 144 45T175 33Q185 33 196 36T219 44L295 84L296 70L210
23Q181 8 159 1T115 -7ZM209 474Q208 471 203 472T198 476L244 716Q246 719 257 722T283 728T308 731T316 727L209 474Z" />
<glyph unicode="&#xe2;" horiz-adv-x="420" d="M316 -6Q312 -8 307 -8Q292 -8 279 14T265 79V255Q265 299 258 325T237 362T205 374Q183 374 168 363T146 334T135 293Q133 274 124 262T91 249Q73 249 63 258T53 283Q53 302 72 321T120 358T180 385T239 395Q279
395 306 369T333 285V108Q333 75 342 59T371 43Q388 43 415 54Q419 56 421 51T419 43L316 -6ZM115 -7Q83 -7 66 10T49 53Q49 84 73 100T150 134L275 177L278 165L176 126Q152 117 142 106T132 78Q132 57 144 45T175 33Q185 33 196 36T219 44L295 84L296 70L210
23Q181 8 159 1T115 -7ZM290 476Q292 474 287 473T280 474L212 621L143 474Q142 471 137 472T132 476L200 725Q201 730 211 730T223 725L290 476Z" />
<glyph unicode="&#xe3;" horiz-adv-x="420" d="M316 -6Q312 -8 307 -8Q292 -8 279 14T265 79V255Q265 299 258 325T237 362T205 374Q183 374 168 363T146 334T135 293Q133 274 124 262T91 249Q73 249 63 258T53 283Q53 302 72 321T120 358T180 385T239 395Q279
395 306 369T333 285V108Q333 75 342 59T371 43Q388 43 415 54Q419 56 421 51T419 43L316 -6ZM115 -7Q83 -7 66 10T49 53Q49 84 73 100T150 134L275 177L278 165L176 126Q152 117 142 106T132 78Q132 57 144 45T175 33Q185 33 196 36T219 44L295 84L296 70L210
23Q181 8 159 1T115 -7ZM287 527Q306 527 316 534T337 554Q339 556 342 553T344 547Q317 506 300 493T264 479Q243 479 223 485T181 498T135 504Q114 504 105 496T85 477Q83 476 80 478T78 484Q86 496 99 512T129 539T163 551Q180 551 199 545T241 533T287 527Z"
/>
<glyph unicode="&#xe4;" horiz-adv-x="420" d="M316 -6Q312 -8 307 -8Q292 -8 279 14T265 79V255Q265 299 258 325T237 362T205 374Q183 374 168 363T146 334T135 293Q133 274 124 262T91 249Q73 249 63 258T53 283Q53 302 72 321T120 358T180 385T239 395Q279
395 306 369T333 285V108Q333 75 342 59T371 43Q388 43 415 54Q419 56 421 51T419 43L316 -6ZM115 -7Q83 -7 66 10T49 53Q49 84 73 100T150 134L275 177L278 165L176 126Q152 117 142 106T132 78Q132 57 144 45T175 33Q185 33 196 36T219 44L295 84L296 70L210
23Q181 8 159 1T115 -7ZM124 473Q103 473 91 485T78 519Q78 540 90 551T124 563Q145 563 157 552T169 519Q169 473 124 473ZM299 473Q278 473 266 485T253 519Q253 540 265 551T299 563Q344 563 344 519Q344 473 299 473Z" />
<glyph unicode="&#xe5;" horiz-adv-x="420" d="M316 -6Q312 -8 307 -8Q292 -8 279 14T265 79V255Q265 299 258 325T237 362T205 374Q183 374 168 363T146 334T135 293Q133 274 124 262T91 249Q73 249 63 258T53 283Q53 302 72 321T120 358T180 385T239 395Q279
395 306 369T333 285V108Q333 75 342 59T371 43Q388 43 415 54Q419 56 421 51T419 43L316 -6ZM115 -7Q83 -7 66 10T49 53Q49 84 73 100T150 134L275 177L278 165L176 126Q152 117 142 106T132 78Q132 57 144 45T175 33Q185 33 196 36T219 44L295 84L296 70L210
23Q181 8 159 1T115 -7ZM202 468Q158 468 134 492T109 547Q109 573 125 590T165 616T212 625Q251 625 278 602T305 545Q305 521 290 504T252 477T202 468ZM218 479Q251 479 251 527Q251 562 234 587T192 613Q162 613 162 567Q162 546 168 526T187 493T218 479Z"
/>
<glyph unicode="&#xe6;" horiz-adv-x="589" d="M420 -12Q373 -12 336 5T276 63T250 170Q248 240 244 285T226 353T182 376Q160 376 147 365T128 334T121 291Q120 279 114 265T81 250Q61 250 51 259T41 286Q41 303 56 322T95 357T148 384T204 395Q246 395 276 369T311
299Q312 287 315 275T320 249T323 215Q323 182 328 149T348 88T388 43T455 25Q485 25 510 32T558 59Q560 61 563 57T565 49Q530 16 496 2T420 -12ZM111 -7Q80 -7 62 10T43 54Q43 84 66 99T143 132L276 176L278 164L170 124Q147 116 138 106T128 79Q128 59 140 47T172
34Q181 34 191 35T212 42L295 84L297 70L203 21Q174 6 153 0T111 -7ZM295 269L294 284L490 289V271L295 269ZM323 215L278 299Q306 343 351 369T451 395Q504 395 532 368T560 292Q560 281 558 276T547 271H478Q482 322 465 348T418 375Q373 375 348 332T323 215Z"
/>
<glyph unicode="&#xe7;" horiz-adv-x="415" d="M232 -12Q163 -12 120 17T56 92T35 185Q35 235 55 274T107 340T180 381T259 395Q287 395 314 387T360 365T378 330Q378 316 368 305T337 293Q318 293 306 304T287 332Q278 352 265 363T224 375Q171 375 142 331T112
216Q112 166 129 123T182 53T276 27Q304 27 328 34T376 58Q379 60 382 56T383 50Q349 19 313 4T232 -12ZM229 -2Q220 -33 219 -49T228 -75T261 -99Q282 -111 299 -129T316 -176Q316 -198 305 -221T270 -259T206 -275Q176 -275 158 -265T139 -234Q139 -220 149 -211T172
-201Q188 -201 194 -209T205 -227T216 -246T240 -254Q271 -254 271 -220Q271 -194 253 -174T186 -127Q175 -121 174 -116T178 -97Q187 -77 191 -66T200 -41T215 -1L229 -2Z" />
<glyph unicode="&#xe8;" horiz-adv-x="411" d="M227 -12Q165 -12 122 15T57 87T35 180Q35 241 64 289T142 366T254 395Q311 395 341 369T372 296Q372 285 370 278T361 271H290Q294 319 275 347T219 375Q168 375 140 333T112 220Q112 164 130 121T183 53T267 28Q293
28 320 35T370 59Q372 61 375 57T377 49Q341 16 304 2T227 -12ZM89 269L88 284L313 289V271L89 269ZM128 727Q127 731 137 731T162 729T188 723T201 716L246 476Q247 474 242 473T236 474L128 727Z" />
<glyph unicode="&#xe9;" horiz-adv-x="411" d="M227 -12Q165 -12 122 15T57 87T35 180Q35 241 64 289T142 366T254 395Q311 395 341 369T372 296Q372 285 370 278T361 271H290Q294 319 275 347T219 375Q168 375 140 333T112 220Q112 164 130 121T183 53T267 28Q293
28 320 35T370 59Q372 61 375 57T377 49Q341 16 304 2T227 -12ZM89 269L88 284L313 289V271L89 269ZM228 474Q227 471 222 472T217 476L263 716Q265 719 276 722T302 728T327 731T335 727L228 474Z" />
<glyph unicode="&#xea;" horiz-adv-x="411" d="M227 -12Q165 -12 122 15T57 87T35 180Q35 241 64 289T142 366T254 395Q311 395 341 369T372 296Q372 285 370 278T361 271H290Q294 319 275 347T219 375Q168 375 140 333T112 220Q112 164 130 121T183 53T267 28Q293
28 320 35T370 59Q372 61 375 57T377 49Q341 16 304 2T227 -12ZM89 269L88 284L313 289V271L89 269ZM309 476Q311 474 306 473T299 474L231 621L162 474Q161 471 156 472T151 476L219 725Q220 730 230 730T242 725L309 476Z" />
<glyph unicode="&#xeb;" horiz-adv-x="411" d="M227 -12Q165 -12 122 15T57 87T35 180Q35 241 64 289T142 366T254 395Q311 395 341 369T372 296Q372 285 370 278T361 271H290Q294 319 275 347T219 375Q168 375 140 333T112 220Q112 164 130 121T183 53T267 28Q293
28 320 35T370 59Q372 61 375 57T377 49Q341 16 304 2T227 -12ZM89 269L88 284L313 289V271L89 269ZM143 473Q122 473 110 485T97 519Q97 540 109 551T143 563Q164 563 176 552T188 519Q188 473 143 473ZM318 473Q297 473 285 485T272 519Q272 540 284 551T318
563Q363 563 363 519Q363 473 318 473Z" />
<glyph unicode="&#xec;" horiz-adv-x="270" d="M49 0Q46 0 46 6T49 12Q85 12 97 25T109 81V265Q109 300 102 316T77 332Q69 332 59 329T34 319Q30 318 28 323T29 331L165 394Q168 395 169 395Q172 395 175 392T179 385Q179 376 178 346T177 267V81Q177 39 188
26T237 12Q240 12 240 6T237 0Q219 0 195 1T143 2Q116 2 92 1T49 0ZM291 727Q290 731 300 731T325 729T351 723T364 716L409 476Q410 474 405 473T399 474L291 727Z" />
<glyph unicode="&#xed;" horiz-adv-x="270" d="M49 0Q46 0 46 6T49 12Q85 12 97 25T109 81V265Q109 300 102 316T77 332Q69 332 59 329T34 319Q30 318 28 323T29 331L165 394Q168 395 169 395Q172 395 175 392T179 385Q179 376 178 346T177 267V81Q177 39 188
26T237 12Q240 12 240 6T237 0Q219 0 195 1T143 2Q116 2 92 1T49 0ZM135 474Q134 471 129 472T124 476L170 716Q172 719 183 722T209 728T234 731T242 727L135 474Z" />
<glyph unicode="&#xee;" horiz-adv-x="270" d="M49 0Q46 0 46 6T49 12Q85 12 97 25T109 81V265Q109 300 102 316T77 332Q69 332 59 329T34 319Q30 318 28 323T29 331L165 394Q168 395 169 395Q172 395 175 392T179 385Q179 376 178 346T177 267V81Q177 39 188
26T237 12Q240 12 240 6T237 0Q219 0 195 1T143 2Q116 2 92 1T49 0ZM216 476Q218 474 213 473T206 474L138 621L69 474Q68 471 63 472T58 476L126 725Q127 730 137 730T149 725L216 476Z" />
<glyph unicode="&#xef;" horiz-adv-x="270" d="M49 0Q46 0 46 6T49 12Q85 12 97 25T109 81V265Q109 300 102 316T77 332Q69 332 59 329T34 319Q30 318 28 323T29 331L165 394Q168 395 169 395Q172 395 175 392T179 385Q179 376 178 346T177 267V81Q177 39 188
26T237 12Q240 12 240 6T237 0Q219 0 195 1T143 2Q116 2 92 1T49 0ZM320 473Q299 473 287 485T274 519Q274 540 286 551T320 563Q342 563 354 552T366 519Q366 497 354 485T320 473ZM466 473Q444 473 432 485T420 519Q420 540 432 551T466 563Q511 563 511 519Q511
473 466 473Z" />
<glyph unicode="&#xf0;" horiz-adv-x="470" d="M378 241Q363 307 323 343T230 379Q178 379 141 337T104 215Q104 159 122 112T174 36T251 7Q285 7 310 23T350 80T365 191Q365 274 343 353T284 501T197 625T90 716Q86 718 89 722T96 725Q176 689 240 634T349 513T419
373T443 227Q443 142 413 89T333 12T223 -13Q163 -13 119 14T51 87T27 186Q27 241 46 281T98 347T168 386T240 399Q276 399 309 386T367 347L378 241ZM125 484Q122 483 119 488T114 500T115 509L389 639Q393 640 396 635T401 623T399 614L125 484Z" />
<glyph unicode="&#xf1;" horiz-adv-x="520" d="M312 0Q309 0 309 6T312 12Q348 12 359 25T371 81V238Q371 295 350 322T283 350Q248 350 213 330T152 273L148 285Q189 341 232 370T324 399Q379 399 409 367T440 276V81Q440 39 451 26T500 12Q503 12 503 6T500
0Q481 0 457 1T406 2Q379 2 355 1T312 0ZM43 0Q40 0 40 6T43 12Q79 12 90 25T102 81V276Q102 308 95 323T69 338Q59 338 46 335T16 324Q12 322 10 327T11 335L134 394Q138 395 140 395Q149 395 160 373T171 310V81Q171 39 182 26T231 12Q234 12 234 6T231 0Q212
0 188 1T137 2Q110 2 86 1T43 0ZM349 527Q368 527 378 534T399 554Q401 556 404 553T406 547Q379 506 362 493T326 479Q305 479 285 485T243 498T197 504Q176 504 167 496T147 477Q145 476 142 478T140 484Q148 496 161 512T191 539T225 551Q242 551 261 545T303
533T349 527Z" />
<glyph unicode="&#xf2;" horiz-adv-x="482" d="M233 -13Q172 -13 128 16T59 93T35 198Q35 250 54 288T106 350T176 387T251 399Q313 399 357 369T424 292T448 193Q448 130 418 84T340 12T233 -13ZM262 6Q311 6 338 44T366 162Q366 229 346 277T293 352T217 379Q168
379 142 342T115 231Q115 168 134 117T186 36T262 6ZM140 727Q139 731 149 731T174 729T200 723T213 716L258 476Q259 474 254 473T248 474L140 727Z" />
<glyph unicode="&#xf3;" horiz-adv-x="482" d="M233 -13Q172 -13 128 16T59 93T35 198Q35 250 54 288T106 350T176 387T251 399Q313 399 357 369T424 292T448 193Q448 130 418 84T340 12T233 -13ZM262 6Q311 6 338 44T366 162Q366 229 346 277T293 352T217 379Q168
379 142 342T115 231Q115 168 134 117T186 36T262 6ZM240 474Q239 471 234 472T229 476L275 716Q277 719 288 722T314 728T339 731T347 727L240 474Z" />
<glyph unicode="&#xf4;" horiz-adv-x="482" d="M233 -13Q172 -13 128 16T59 93T35 198Q35 250 54 288T106 350T176 387T251 399Q313 399 357 369T424 292T448 193Q448 130 418 84T340 12T233 -13ZM262 6Q311 6 338 44T366 162Q366 229 346 277T293 352T217 379Q168
379 142 342T115 231Q115 168 134 117T186 36T262 6ZM321 476Q323 474 318 473T311 474L243 621L174 474Q173 471 168 472T163 476L231 725Q232 730 242 730T254 725L321 476Z" />
<glyph unicode="&#xf5;" horiz-adv-x="482" d="M233 -13Q172 -13 128 16T59 93T35 198Q35 250 54 288T106 350T176 387T251 399Q313 399 357 369T424 292T448 193Q448 130 418 84T340 12T233 -13ZM262 6Q311 6 338 44T366 162Q366 229 346 277T293 352T217 379Q168
379 142 342T115 231Q115 168 134 117T186 36T262 6ZM318 527Q337 527 347 534T368 554Q370 556 373 553T375 547Q348 506 331 493T295 479Q274 479 254 485T212 498T166 504Q145 504 136 496T116 477Q114 476 111 478T109 484Q117 496 130 512T160 539T194 551Q211
551 230 545T272 533T318 527Z" />
<glyph unicode="&#xf6;" horiz-adv-x="482" d="M233 -13Q172 -13 128 16T59 93T35 198Q35 250 54 288T106 350T176 387T251 399Q313 399 357 369T424 292T448 193Q448 130 418 84T340 12T233 -13ZM262 6Q311 6 338 44T366 162Q366 229 346 277T293 352T217 379Q168
379 142 342T115 231Q115 168 134 117T186 36T262 6ZM155 473Q134 473 122 485T109 519Q109 540 121 551T155 563Q176 563 188 552T200 519Q200 473 155 473ZM330 473Q309 473 297 485T284 519Q284 540 296 551T330 563Q375 563 375 519Q375 473 330 473Z" />
<glyph unicode="&#xf7;" horiz-adv-x="398" d="M34 168Q31 168 30 179T30 200T33 211H364Q367 211 368 201T368 179T364 168H34ZM198 -11Q175 -11 162 2T149 38Q149 59 162 71T198 84Q221 84 233 72T245 38Q245 15 233 2T198 -11ZM198 299Q175 299 162 312T149
348Q149 369 162 381T198 394Q221 394 233 382T245 348Q245 299 198 299Z" />
<glyph unicode="&#xf8;" horiz-adv-x="477" d="M53 -15Q52 -17 47 -14T38 -6T36 2L422 399Q424 401 429 398T438 391T439 384L53 -15ZM233 -13Q172 -13 128 16T59 93T35 198Q35 250 54 288T106 350T176 387T251 399Q313 399 357 369T424 292T448 193Q448 130 418
84T340 12T233 -13ZM262 6Q311 6 338 44T366 162Q366 229 346 277T293 352T217 379Q168 379 142 342T115 231Q115 168 134 117T186 36T262 6Z" />
<glyph unicode="&#xf9;" horiz-adv-x="497" d="M185 -9Q134 -9 105 23T75 114V265Q75 303 69 320T45 337Q32 337 14 328Q10 326 8 332T9 339L127 394Q129 395 131 395Q135 395 139 392T143 385V152Q143 94 163 67T226 39Q262 39 297 60T358 115L363 104Q321 48
278 20T185 -9ZM407 385V110Q407 76 414 61T440 46Q449 46 460 49T489 60Q493 62 495 57T495 49L371 -10Q369 -11 366 -11Q358 -11 349 11T339 76V265Q339 303 332 320T309 337Q296 337 277 328Q274 326 272 332T273 339L391 394Q393 395 395 395Q398 395 402 392T407
385ZM142 727Q141 731 151 731T176 729T202 723T215 716L260 476Q261 474 256 473T250 474L142 727Z" />
<glyph unicode="&#xfa;" horiz-adv-x="497" d="M185 -9Q134 -9 105 23T75 114V265Q75 303 69 320T45 337Q32 337 14 328Q10 326 8 332T9 339L127 394Q129 395 131 395Q135 395 139 392T143 385V152Q143 94 163 67T226 39Q262 39 297 60T358 115L363 104Q321 48
278 20T185 -9ZM407 385V110Q407 76 414 61T440 46Q449 46 460 49T489 60Q493 62 495 57T495 49L371 -10Q369 -11 366 -11Q358 -11 349 11T339 76V265Q339 303 332 320T309 337Q296 337 277 328Q274 326 272 332T273 339L391 394Q393 395 395 395Q398 395 402 392T407
385ZM242 474Q241 471 236 472T231 476L277 716Q279 719 290 722T316 728T341 731T349 727L242 474Z" />
<glyph unicode="&#xfb;" horiz-adv-x="497" d="M185 -9Q134 -9 105 23T75 114V265Q75 303 69 320T45 337Q32 337 14 328Q10 326 8 332T9 339L127 394Q129 395 131 395Q135 395 139 392T143 385V152Q143 94 163 67T226 39Q262 39 297 60T358 115L363 104Q321 48
278 20T185 -9ZM407 385V110Q407 76 414 61T440 46Q449 46 460 49T489 60Q493 62 495 57T495 49L371 -10Q369 -11 366 -11Q358 -11 349 11T339 76V265Q339 303 332 320T309 337Q296 337 277 328Q274 326 272 332T273 339L391 394Q393 395 395 395Q398 395 402 392T407
385ZM323 476Q325 474 320 473T313 474L245 621L176 474Q175 471 170 472T165 476L233 725Q234 730 244 730T256 725L323 476Z" />
<glyph unicode="&#xfc;" horiz-adv-x="497" d="M185 -9Q134 -9 105 23T75 114V265Q75 303 69 320T45 337Q32 337 14 328Q10 326 8 332T9 339L127 394Q129 395 131 395Q135 395 139 392T143 385V152Q143 94 163 67T226 39Q262 39 297 60T358 115L363 104Q321 48
278 20T185 -9ZM407 385V110Q407 76 414 61T440 46Q449 46 460 49T489 60Q493 62 495 57T495 49L371 -10Q369 -11 366 -11Q358 -11 349 11T339 76V265Q339 303 332 320T309 337Q296 337 277 328Q274 326 272 332T273 339L391 394Q393 395 395 395Q398 395 402 392T407
385ZM157 473Q136 473 124 485T111 519Q111 540 123 551T157 563Q178 563 190 552T202 519Q202 473 157 473ZM332 473Q311 473 299 485T286 519Q286 540 298 551T332 563Q377 563 377 519Q377 473 332 473Z" />
<glyph unicode="&#xfd;" horiz-adv-x="432" d="M434 386Q437 386 437 380T434 374Q406 374 387 353T351 288L232 -28Q196 -124 163 -179T95 -258T18 -281Q-5 -281 -20 -271T-36 -239Q-36 -221 -25 -213T0 -204Q19 -204 29 -210T49 -222T75 -228Q99 -228 121 -206T168
-132T226 12L225 -25L63 303Q41 347 29 360T-2 374Q-5 374 -5 380T-2 386Q15 386 34 385T70 384Q104 384 129 385T176 386Q178 386 178 380T176 374Q143 374 129 366T125 335L260 60L232 13L327 286Q343 332 328 353T263 374Q261 374 261 380T263 386Q287 386 308
385T364 384Q386 384 400 385T434 386ZM222 474Q221 471 216 472T211 476L257 716Q259 719 270 722T296 728T321 731T329 727L222 474Z" />
<glyph unicode="&#xfe;" horiz-adv-x="493" d="M12 -275Q10 -275 10 -269T12 -263Q50 -263 61 -250T73 -194V595Q73 630 67 646T42 662Q27 662 -1 649Q-5 647 -7 653T-7 660L125 724Q127 725 130 725Q133 725 137 722T141 715V-194Q141 -222 148 -237T176 -257T238
-263Q240 -263 240 -269T238 -275Q210 -275 177 -274T107 -273Q80 -273 56 -274T12 -275ZM241 -13Q202 -13 174 -5T108 25L130 82Q155 51 185 30T267 9Q317 9 350 53T383 184Q383 269 345 312T253 356Q211 356 180 333T119 277L110 286Q160 345 207 372T303 399Q344
399 379 378T436 315T458 215Q458 153 438 110T384 39T313 0T241 -13Z" />
<glyph unicode="&#xff;" horiz-adv-x="432" d="M434 386Q437 386 437 380T434 374Q406 374 387 353T351 288L232 -28Q196 -124 163 -179T95 -258T18 -281Q-5 -281 -20 -271T-36 -239Q-36 -221 -25 -213T0 -204Q19 -204 29 -210T49 -222T75 -228Q99 -228 121 -206T168
-132T226 12L225 -25L63 303Q41 347 29 360T-2 374Q-5 374 -5 380T-2 386Q15 386 34 385T70 384Q104 384 129 385T176 386Q178 386 178 380T176 374Q143 374 129 366T125 335L260 60L232 13L327 286Q343 332 328 353T263 374Q261 374 261 380T263 386Q287 386 308
385T364 384Q386 384 400 385T434 386ZM137 473Q116 473 104 485T91 519Q91 540 103 551T137 563Q158 563 170 552T182 519Q182 473 137 473ZM312 473Q291 473 279 485T266 519Q266 540 278 551T312 563Q357 563 357 519Q357 473 312 473Z" />
<glyph unicode="&#x2013;" horiz-adv-x="515" d="M34 168Q31 168 30 179T30 200T33 211H481Q484 211 485 201T485 179T481 168H34Z" />
<glyph unicode="&#x2014;" horiz-adv-x="830" d="M34 168Q31 168 30 179T30 200T33 211H796Q799 211 800 201T800 179T796 168H34Z" />
<glyph unicode="&#x2018;" horiz-adv-x="192" d="M103 369Q72 369 54 391T36 459Q36 509 58 551T119 634Q123 637 126 634T127 627Q102 594 94 564T86 500Q86 471 93 456T111 431L73 424Q72 441 82 450T110 459Q131 459 143 447T155 414Q155 392 142 381T103 369Z" />
<glyph unicode="&#x2019;" horiz-adv-x="190" d="M88 631Q119 631 137 609T155 540Q155 491 133 449T72 365Q68 362 65 365T64 372Q90 406 97 436T105 500Q105 529 98 544T79 569L117 576Q118 559 108 550T80 541Q59 541 48 553T36 585Q36 607 49 619T88 631Z" />
<glyph unicode="&#x201a;" horiz-adv-x="190" d="M344 82Q375 82 393 60T411 -9Q411 -58 389 -100T328 -184Q324 -187 321 -184T320 -177Q346 -143 353 -113T361 -49Q361 -20 354 -5T335 20L373 27Q374 10 364 1T336 -8Q315 -8 304 4T292 36Q292 58 305 70T344 82Z" />
<glyph unicode="&#x201c;" horiz-adv-x="346" d="M103 369Q73 369 55 391T36 459Q36 509 58 551T119 634Q123 637 126 634T127 627Q102 594 94 564T86 500Q86 471 93 456T112 431L74 424Q73 441 83 450T111 459Q132 459 143 447T155 414Q155 392 142 381T103 369ZM258
369Q228 369 210 391T191 459Q191 509 213 551T274 634Q278 637 281 634T282 627Q257 594 249 564T241 500Q241 471 248 456T266 431L229 424Q228 441 238 450T266 459Q287 459 298 447T310 414Q310 392 297 381T258 369Z" />
<glyph unicode="&#x201d;" horiz-adv-x="346" d="M243 631Q274 631 292 609T310 540Q310 491 288 449T227 365Q223 362 220 365T219 372Q245 406 252 436T260 500Q260 529 253 544T234 569L272 576Q273 559 263 550T235 541Q214 541 203 553T191 585Q191 607 204
619T243 631ZM88 631Q119 631 137 609T155 540Q155 491 133 449T72 365Q68 362 65 365T64 372Q90 406 97 436T105 500Q105 529 98 544T79 569L117 576Q118 559 108 550T80 541Q59 541 48 553T36 585Q36 607 49 619T88 631Z" />
<glyph unicode="&#x201e;" horiz-adv-x="351" d="M243 82Q274 82 292 60T310 -9Q310 -58 288 -100T227 -184Q223 -187 220 -184T219 -177Q245 -143 252 -113T260 -49Q260 -20 253 -5T234 20L272 27Q273 10 263 1T235 -8Q214 -8 203 4T191 36Q191 58 204 70T243
82ZM344 82Q375 82 393 60T411 -9Q411 -58 389 -100T328 -184Q324 -187 321 -184T320 -177Q346 -143 353 -113T361 -49Q361 -20 354 -5T335 20L373 27Q374 10 364 1T336 -8Q315 -8 304 4T292 36Q292 58 305 70T344 82Z" />
<glyph unicode="&#x2022;" horiz-adv-x="311" d="M156 145Q128 145 104 158T66 195T52 248Q52 276 66 299T104 336T156 351Q185 351 208 337T245 300T259 248Q259 219 245 196T208 159T156 145Z" />
<glyph unicode="&#x2039;" horiz-adv-x="304" d="M238 40L57 189Q53 194 53 201T57 212L238 361Q240 364 243 361T245 356L132 201L245 46Q246 44 243 41T238 40Z" />
<glyph unicode="&#x203a;" horiz-adv-x="304" d="M66 361L247 212Q252 208 252 201T247 189L66 40Q65 37 62 40T59 46L173 200L59 356Q58 358 61 361T66 361Z" />
</font>
</defs>
</svg>
