<?xml version="1.0" standalone="no"?>
<!DOCTYPE svg PUBLIC "-//W3C//DTD SVG 1.1//EN" "http://www.w3.org/Graphics/SVG/1.1/DTD/svg11.dtd">
<svg xmlns="http://www.w3.org/2000/svg">
<defs >
<font id="Cormorant" horiz-adv-x="539" ><font-face
    font-family="Cormorant Light"
    units-per-em="1000"
    panose-1="0 0 0 0 0 0 0 0 0 0"
    ascent="924"
    descent="-287"
    alphabetic="0" />
<glyph unicode=" " horiz-adv-x="234" />
<glyph unicode="!" horiz-adv-x="247" d="M78 620Q78 622 85 624T102 628T124 629Q135 629 146 628T163 625T169 620Q157 554 149 480T137 331T129 189Q129 188 126 187T118 187T114 189Q112 256 108 330T97 479T78 620ZM119 -11Q99 -11 87 0T75 32Q75 51 87 62T119
74Q140 74 151 63T162 32Q162 12 151 1T119 -11Z" />
<glyph unicode="&quot;" horiz-adv-x="283" d="M55 365L43 608Q43 617 55 623T82 634T108 640T119 636L67 366Q66 364 61 363T55 365ZM197 365L185 608Q185 617 197 623T224 634T250 640T261 636L209 366Q208 364 203 363T197 365Z" />
<glyph unicode="#" horiz-adv-x="526" d="M140 -79Q140 -82 131 -82T113 -80T104 -75L203 482Q203 485 212 484T230 481T238 475L140 -79ZM327 -79Q327 -82 318 -82T300 -80T291 -75L390 482Q390 485 399 484T417 481T425 475L327 -79ZM63 76Q60 76 59 86T59 106T62
116H428Q431 116 432 106T432 86T428 76H63ZM98 275Q95 275 94 285T94 304T97 314H463Q466 314 467 305T467 285T463 275H98Z" />
<glyph unicode="$" horiz-adv-x="411" d="M203 -102V561Q203 566 208 567T219 568T224 561V-102Q224 -106 219 -107T209 -108T203 -102ZM123 386Q123 353 140 331T184 293T241 261Q272 245 301 227T348 184T366 122Q366 85 346 55T289 6T198 -12Q166 -12 135 -4T79
23Q74 25 73 30T70 42L59 141Q58 146 64 146T71 143Q80 106 102 74T154 23T220 4Q240 4 261 12T295 38T309 89Q309 124 292 148T247 190T189 224Q159 240 132 257T87 299T70 359Q70 399 91 425T147 466T221 480Q243 480 268 475T320 457Q329 453 331 450T335 440L342
353Q342 349 337 348T330 351Q327 368 316 388T289 425T251 454T203 465Q164 465 144 443T123 386Z" />
<glyph unicode="%" horiz-adv-x="574" d="M150 303Q97 303 62 340T27 433Q27 468 42 497T86 543T150 560Q204 560 237 522T270 430Q270 377 237 340T150 303ZM157 314Q193 314 202 345T212 423Q212 549 144 549Q107 549 96 516T85 436Q85 385 100 350T157 314ZM427
-5Q391 -5 363 12T320 59T304 125Q304 160 319 189T363 235T427 253Q463 253 490 236T532 189T547 123Q547 69 514 32T427 -5ZM434 7Q470 7 479 38T489 116Q489 241 421 241Q385 241 374 208T363 129Q363 78 378 43T434 7ZM106 -6Q105 -7 99 -5T87 1T82 7L453 551Q455
553 461 550T472 543T477 537L106 -6Z" />
<glyph unicode="&amp;" horiz-adv-x="697" d="M64 137Q64 183 86 218T142 282T216 337T289 393T346 455T368 531Q368 576 344 600T281 625Q243 625 223 602T202 529Q202 477 224 424T285 318T374 217T481 126Q544 79 601 50T697 12Q702 11 701 6T697 0Q675 0 646
0T589 0Q576 0 555 8T502 36T422 96Q372 136 324 183T237 280T173 379Q160 408 152 435T144 487Q144 531 165 567T223 624T310 646Q337 646 364 638T409 608T427 547Q427 504 406 473T350 415T277 364T205 312T150 251T128 172Q128 130 149 95T209 39T295 18Q342
18 382 38T450 93T494 172T510 265Q510 297 498 317T439 337Q436 337 436 343T439 349L648 350Q652 350 652 344T648 338Q613 338 596 332T572 312T559 279Q550 245 535 206T496 128T438 58T358 7T250 -12Q186 -12 145 9T84 65T64 137Z" />
<glyph unicode="&apos;" horiz-adv-x="140" d="M55 365L43 608Q43 617 55 623T82 634T108 640T119 636L67 366Q66 364 61 363T55 365Z" />
<glyph unicode="(" horiz-adv-x="309" d="M65 304Q65 398 89 480T160 625T274 725Q276 726 278 724T278 719Q202 647 168 543T134 304Q134 169 168 65T278 -111Q280 -112 278 -115T274 -117Q207 -80 161 -17T90 128T65 304Z" />
<glyph unicode=")" horiz-adv-x="309" d="M244 304Q244 211 220 129T149 -17T35 -117Q34 -118 32 -116T31 -111Q107 -39 141 65T175 304Q175 439 141 543T31 719Q29 721 31 723T35 725Q102 689 148 626T219 480T244 304Z" />
<glyph unicode="*" horiz-adv-x="448" d="M137 383Q133 377 119 378T90 386T64 397T58 405L206 491Q208 493 212 490T214 485L137 383ZM269 314L233 481Q232 483 236 486T241 488L315 382Q320 376 314 364T298 338T279 317T269 314ZM204 511L82 552Q75 555 73
569T70 599T73 627T79 635L207 520Q210 519 208 515T204 511ZM422 486L251 503Q249 503 248 507T248 513L371 551Q378 553 388 544T408 521T422 497T422 486ZM226 529L228 657Q228 665 240 671T268 682T295 688T305 685L236 529Q235 526 231 526T226 529Z" />
<glyph unicode="+" horiz-adv-x="398" d="M34 170Q31 170 30 180T30 199T33 209H364Q367 209 368 200T368 180T364 170H34ZM219 25Q219 22 209 21T189 20T179 23V354Q179 357 189 358T209 358T219 354V25Z" />
<glyph unicode="," horiz-adv-x="222" d="M102 71Q132 71 149 50T166 -17Q166 -63 146 -103T91 -181Q87 -184 84 -181T83 -174Q107 -141 114 -112T121 -52Q121 -23 113 -7T93 20L131 27Q132 10 122 1T96 -8Q77 -8 67 2T56 31Q56 50 67 60T102 71Z" />
<glyph unicode="-" horiz-adv-x="323" d="M32 165Q29 165 28 175T27 196T30 207L291 254Q294 255 295 245T295 224T291 212L32 165Z" />
<glyph unicode="." horiz-adv-x="197" d="M99 -11Q79 -11 67 0T55 32Q55 51 67 62T99 74Q120 74 131 63T142 32Q142 12 131 1T99 -11Z" />
<glyph unicode="/" horiz-adv-x="341" d="M64 -163Q63 -166 54 -164T35 -158T26 -152L278 730Q280 733 289 731T308 725T315 718L64 -163Z" />
<glyph unicode="0" horiz-adv-x="477" d="M240 -13Q180 -13 134 14T61 88T35 196Q35 256 61 301T134 373T241 399Q301 399 346 373T416 300T442 193Q442 133 417 87T346 14T240 -13ZM251 1Q313 1 343 51T373 181Q373 252 353 297T301 363T230 385Q170 385 137
334T103 204Q103 146 121 100T173 28T251 1Z" />
<glyph unicode="1" horiz-adv-x="332" d="M55 0Q52 0 52 6T55 12Q96 12 117 17T146 37T153 81V267Q153 307 147 323T120 336T54 311Q50 310 48 315T49 322L200 395Q204 397 207 394T210 388V81Q210 52 216 37T244 17T307 12Q310 12 310 6T307 0Q282 0 250 1T181
2Q146 2 114 1T55 0Z" />
<glyph unicode="2" horiz-adv-x="402" d="M37 15Q101 66 144 105T214 174T251 232T263 286Q263 327 239 352T175 377Q135 377 107 346T61 253Q60 251 54 252T49 256L88 408Q89 411 95 410T99 406Q95 389 100 384T113 379Q128 379 153 389T216 399Q268 399 297
372T326 300Q326 273 313 247T274 192T209 130T116 56Q112 53 114 51T120 49Q193 49 238 50T308 57T344 76T361 114Q362 116 367 116T373 113L358 11Q358 7 356 4T349 0Q278 0 198 0T44 0Q40 0 37 5T37 15Z" />
<glyph unicode="3" horiz-adv-x="389" d="M59 -275Q55 -276 53 -271T54 -264Q120 -243 163 -214T231 -151T267 -84T277 -20Q277 12 266 41T231 89T165 108Q153 108 141 107T116 102Q113 101 111 107T112 114Q192 135 223 171T255 268Q255 317 235 347T168 377Q125
377 94 349T45 258Q44 256 38 257T33 261L70 407Q72 410 77 409T82 405Q78 388 84 383T97 377Q112 377 138 388T201 399Q259 399 289 364T319 285Q319 248 302 214T253 154T176 119L191 132Q245 131 280 111T332 59T349 -9Q349 -55 319 -106T224 -202T59 -275Z"
/>
<glyph unicode="4" horiz-adv-x="451" d="M29 8Q25 8 22 12T22 20L314 396Q316 399 322 398T329 392V-153Q329 -164 321 -167L279 -188Q270 -193 270 -182V316L302 338L73 45Q70 42 72 40T78 38Q135 38 179 38T261 40T334 42T414 44Q417 44 417 34T417 12T413
1Q374 3 335 4T253 6T155 7T29 8Z" />
<glyph unicode="5" horiz-adv-x="409" d="M78 196Q177 196 237 172T324 106T351 9Q351 -48 322 -94T231 -184T68 -275Q64 -276 61 -271T62 -264Q149 -221 197 -179T265 -94T285 -8Q285 74 230 120T68 167Q56 167 58 179L90 357Q91 364 93 365T103 368Q189 378
237 384T307 395T335 406T345 423Q346 426 351 426T356 421L336 348Q332 335 326 333T308 330L119 326Q106 326 104 311L79 173L78 196Z" />
<glyph unicode="6" horiz-adv-x="465" d="M299 283Q347 283 375 265T417 219T430 159Q430 112 403 73T331 10T230 -13Q146 -13 97 44T47 208Q47 301 88 390T209 551T400 661Q404 662 406 657T405 650Q307 606 242 536T144 384T111 225Q111 165 128 116T178 36T258
6Q306 6 336 39T366 132Q366 184 342 219T265 255Q238 255 216 244T165 208Q163 205 158 208T155 215Q181 248 217 265T299 283Z" />
<glyph unicode="7" horiz-adv-x="429" d="M163 -218Q159 -228 154 -233T142 -242L92 -275Q90 -276 87 -273T85 -268L351 329Q354 336 346 336Q262 336 207 335T120 330T72 319T48 299T35 268Q34 265 28 266T23 271L58 413Q60 415 65 415T70 412Q66 395 75 391T117
386Q132 386 163 386T233 386T311 386T382 386Q387 386 390 382T391 373L163 -218Z" />
<glyph unicode="8" horiz-adv-x="489" d="M278 341Q306 367 321 394T336 453Q336 500 308 529T238 558Q205 558 182 539T158 484Q158 452 177 428T227 385T291 347Q331 325 368 301T429 244T453 162Q453 111 425 72T348 10T242 -13Q182 -13 138 10T71 70T47 150Q47
198 72 239T138 312T221 358L227 350Q173 325 143 280T112 176Q112 132 132 93T187 30T270 5Q306 5 334 20T379 64T396 130Q396 180 372 213T312 269T236 313Q202 332 172 351T122 395T103 454Q103 496 128 522T189 561T259 574Q301 574 331 558T377 518T393 469Q393
435 364 400T283 335L278 341Z" />
<glyph unicode="9" horiz-adv-x="465" d="M177 109Q125 109 94 130T49 182T35 244Q35 290 59 324T124 379T217 399Q279 399 324 370T393 289T418 166Q418 99 395 32T326 -96T215 -202T65 -275Q62 -276 60 -271T61 -264Q134 -234 189 -187T281 -84T336 31T354 146Q354
182 346 222T320 299T273 357T201 380Q154 380 127 350T99 263Q99 211 126 174T209 137Q235 137 255 145T300 174Q303 177 308 174T311 167Q261 109 177 109Z" />
<glyph unicode=":" horiz-adv-x="197" d="M99 -11Q79 -11 67 0T55 32Q55 51 67 62T99 74Q120 74 131 63T142 32Q142 12 131 1T99 -11ZM99 270Q79 270 67 281T55 313Q55 332 67 343T99 355Q120 355 131 344T142 313Q142 293 131 282T99 270Z" />
<glyph unicode=";" horiz-adv-x="224" d="M104 71Q134 71 151 50T168 -17Q168 -63 148 -103T93 -181Q89 -184 86 -181T85 -174Q109 -141 116 -112T123 -52Q123 -23 115 -7T95 20L133 27Q134 10 124 1T98 -8Q79 -8 69 2T58 31Q58 50 69 60T104 71ZM101 270Q81 270
69 281T57 313Q57 332 69 343T101 355Q122 355 133 344T144 313Q144 293 133 282T101 270Z" />
<glyph unicode="&lt;" horiz-adv-x="407" d="M36 173Q31 176 31 190T36 207L370 354Q375 357 376 348T377 328T370 314L57 181V200L370 66Q375 64 376 53T377 33T370 25L36 173Z" />
<glyph unicode="=" horiz-adv-x="468" d="M34 100Q31 100 30 109T30 129T33 139H434Q437 139 438 129T438 110T434 100H34ZM34 240Q31 240 30 250T30 269T33 279H434Q437 279 438 270T438 250T434 240H34Z" />
<glyph unicode="&gt;" horiz-adv-x="407" d="M371 206Q376 203 376 189T371 172L37 25Q33 23 32 32T31 52T37 65L350 198V179L37 313Q33 315 32 326T31 347T37 354L371 206Z" />
<glyph unicode="?" horiz-adv-x="329" d="M159 612Q132 612 125 597T115 565Q114 555 110 545T99 528T77 521Q60 521 52 532T43 555Q43 584 78 604T162 625Q199 625 230 612T279 573T297 505Q297 473 286 450T257 408T221 372Q187 338 173 311T158 248Q158 236
159 223T164 193Q165 190 159 189T152 191Q140 219 133 254T126 310Q126 339 136 358T162 393T193 425T219 463T230 517Q230 560 210 586T159 612ZM147 -11Q127 -11 115 0T103 32Q103 51 115 62T147 74Q168 74 179 63T190 32Q190 12 179 1T147 -11Z" />
<glyph unicode="@" horiz-adv-x="719" d="M414 138L432 229L450 242Q427 187 396 143T331 74T266 49Q242 49 226 67T216 129Q222 170 242 210T293 283T355 335T418 355Q438 355 456 344T476 306L447 325Q456 327 468 337T483 362Q485 364 493 364T501 361L460
137Q455 108 459 90T493 71Q520 71 547 90T592 146T611 236Q611 301 579 354T492 438T366 470Q288 470 233 432T147 332T117 199Q117 119 152 60T249 -33T393 -66Q439 -66 476 -57T559 -20Q561 -18 564 -22T565 -28Q510 -72 456 -84T361 -97Q281 -97 216 -65T113
27T74 173Q74 244 100 302T173 403T277 469T398 493Q474 493 530 462T617 379T648 265Q648 208 623 160T557 81T467 51Q432 51 420 75T414 138ZM293 88Q313 88 335 104T379 146T416 205T439 270Q444 296 434 314T396 332Q372 332 345 308T297 246T268 161Q263 127
267 108T293 88Z" />
<glyph unicode="A" horiz-adv-x="702" d="M213 331L228 352H434L441 331H213ZM699 12Q703 12 703 6T699 0Q670 0 640 2T582 4Q551 4 528 2T477 0Q473 0 473 6T477 12Q530 12 543 27T536 86L314 555L339 586L145 127Q120 66 142 39T229 12Q234 12 234 6T229 0Q199
0 174 2T111 4Q75 4 54 2T1 0Q-3 0 -3 6T1 12Q28 12 48 22T85 59T124 136L335 634Q337 637 342 637T348 634L584 137Q607 88 625 61T660 23T699 12Z" />
<glyph unicode="B" horiz-adv-x="558" d="M300 342L311 353Q370 353 414 331T483 271T508 184Q508 131 482 88T411 21T309 -4Q277 -4 237 -1T162 2Q129 2 99 1T43 0Q41 0 41 6T43 12Q79 12 98 17T124 37T131 81V544Q131 573 125 587T100 607T45 613Q42 613 42
619T45 625Q69 625 99 624T162 622Q188 622 222 625T280 628Q339 628 376 611T430 563T448 496Q448 439 407 399T300 342ZM258 613Q235 613 221 609T201 591T195 542V346L163 354Q195 352 216 352T240 351Q317 351 350 390T383 488Q383 523 371 551T331 596T258
613ZM294 14Q369 14 403 52T438 159Q438 234 394 282T271 330Q246 331 220 330T166 325L195 336V81Q195 57 202 42T230 21T294 14Z" />
<glyph unicode="C" horiz-adv-x="669" d="M415 636Q461 636 510 627T590 601Q599 596 601 592T605 577L616 465Q616 463 611 462T605 464Q582 545 521 579T376 614Q299 614 243 581T155 487T124 345Q124 274 146 212T207 102T298 29T408 2Q478 2 531 40T614 163Q615
167 620 166T626 162L612 49Q610 37 608 34T596 26Q548 6 501 -3T406 -12Q311 -12 243 17T132 95T69 202T49 318Q49 390 79 448T161 548T278 613T415 636Z" />
<glyph unicode="D" horiz-adv-x="691" d="M303 -4Q274 -4 232 -1T153 2Q120 2 90 1T35 0Q33 0 33 6T35 12Q71 12 90 17T115 37T121 81V544Q121 573 115 587T91 607T36 613Q34 613 34 619T36 625Q60 625 90 624T153 622Q186 622 224 624T289 627Q395 627 474 587T598
478T642 323Q642 248 616 188T542 85T433 19T303 -4ZM293 11Q373 11 434 44T530 143T566 301Q566 388 533 458T441 570T298 612Q238 612 212 600T186 542V92Q186 50 206 31T293 11Z" />
<glyph unicode="E" horiz-adv-x="537" d="M462 0H43Q41 0 41 6T43 12Q80 12 98 17T122 37T129 81V544Q129 573 123 587T98 607T43 613Q41 613 41 619T43 625H445Q454 625 454 616L456 493Q456 490 451 490T445 492Q442 546 413 575T336 604H275Q241 604 224 599T200
580T193 539V85Q193 59 199 45T222 26T272 21H352Q400 21 432 55T475 149Q475 152 481 151T487 147Q483 121 481 84T478 15Q478 0 462 0ZM406 233Q406 277 385 296T313 315H163V336H316Q364 336 384 352T405 406Q405 408 411 408T417 406Q417 376 417 360T416 325Q416
302 417 280T418 233Q418 231 412 231T406 233Z" />
<glyph unicode="F" horiz-adv-x="509" d="M42 0Q40 0 40 6T42 12Q79 12 97 17T122 37T129 81V544Q129 573 123 587T98 607T43 613Q41 613 41 619T43 625H445Q454 625 454 616L456 493Q456 490 451 490T445 492Q442 546 413 575T336 604H275Q225 604 209 592T193
543V85Q193 55 201 40T236 18T315 12Q318 12 318 6T315 0Q282 0 245 1T161 2Q128 2 97 1T42 0ZM394 221Q394 265 371 284T292 303H163V324H295Q348 324 370 341T393 394Q393 396 399 396T405 394Q405 364 405 348T404 313Q404 290 405 268T406 221Q406 219 400
219T394 221Z" />
<glyph unicode="G" horiz-adv-x="714" d="M405 -12Q293 -12 213 30T91 145T49 305Q49 379 77 439T157 544T278 612T430 636Q477 636 522 627T596 600Q605 594 606 590T608 577L620 465Q620 463 615 462T608 464Q586 537 529 575T387 614Q260 614 192 541T123 341Q123
242 163 167T272 48T429 5Q478 5 507 14T549 49T562 126Q562 174 556 196T526 226T449 233Q443 233 443 241T448 249Q511 245 563 245T672 247Q677 247 677 240T672 233Q649 234 639 227T625 194T622 116Q622 83 624 67T627 44T629 28Q629 22 627 20T618 16Q567
4 512 -4T405 -12Z" />
<glyph unicode="H" horiz-adv-x="759" d="M571 542Q571 571 565 586T541 607T483 613Q480 613 480 619T483 625Q507 625 537 624T604 622Q637 622 668 623T722 625Q725 625 725 619T722 613Q685 613 666 608T641 588T635 544V81Q635 52 641 37T666 17T722 12Q725
12 725 6T722 0Q699 0 668 1T604 2Q567 2 537 1T483 0Q480 0 480 6T483 12Q522 12 540 17T565 37T571 81V542ZM152 315V336H599V315H152ZM123 81V544Q123 573 117 587T92 607T36 613Q34 613 34 619T36 625Q60 625 90 624T154 622Q191 622 221 623T275 625Q277 625
277 619T275 613Q238 613 219 607T194 586T187 542V81Q187 52 193 37T218 17T275 12Q277 12 277 6T275 0Q250 0 221 1T154 2Q121 2 90 1T35 0Q33 0 33 6T35 12Q72 12 91 17T116 37T123 81Z" />
<glyph unicode="I" horiz-adv-x="332" d="M199 81Q199 52 205 37T229 17T284 12Q287 12 287 6T284 0Q260 0 231 1T165 2Q132 2 102 1T47 0Q44 0 44 6T47 12Q83 12 102 17T127 37T133 81V544Q133 573 127 587T102 607T47 613Q44 613 44 619T47 625Q71 625 101 624T165
622Q201 622 231 623T284 625Q287 625 287 619T284 613Q248 613 230 607T205 586T199 542V81Z" />
<glyph unicode="J" horiz-adv-x="322" d="M280 625Q282 625 282 619T280 613Q248 613 233 607T212 586T206 542V-28Q206 -124 161 -184T27 -244Q-7 -244 -26 -232T-46 -201Q-46 -186 -37 -177T-12 -168Q6 -168 15 -176T31 -195T46 -215T69 -224Q104 -224 122 -184T140
-49V544Q140 573 133 587T105 607T42 613Q40 613 40 619T42 625Q71 625 104 624T172 622Q205 622 231 623T280 625Z" />
<glyph unicode="K" horiz-adv-x="650" d="M121 81V544Q121 573 115 587T91 607T36 613Q34 613 34 619T36 625Q60 625 90 624T153 622Q189 622 218 623T271 625Q274 625 274 619T271 613Q235 613 217 607T193 586T186 542V81Q186 52 192 37T216 17T271 12Q274 12
274 6T271 0Q247 0 218 1T153 2Q120 2 90 1T35 0Q33 0 33 6T35 12Q71 12 90 17T115 37T121 81ZM372 145L213 345L263 385L409 199Q454 140 485 104T538 49T575 22T607 13T641 12Q644 12 644 6T641 0Q596 0 569 0T529 0Q508 0 497 0T479 5T461 25T430 69T372 145ZM142
287L400 544Q437 582 432 597T374 613Q372 613 372 619T374 625Q399 625 424 624T490 622Q529 622 552 623T596 625Q599 625 599 619T596 613Q560 613 513 597T423 538L167 287H142Z" />
<glyph unicode="L" horiz-adv-x="533" d="M185 543V85Q185 58 191 44T214 26T265 21H374Q432 21 466 57T510 153Q510 156 515 156T521 152Q518 125 515 87T512 15Q512 0 497 0H35Q33 0 33 6T35 12Q71 12 89 17T114 37T120 81V544Q120 573 114 587T90 607T35 613Q33
613 33 619T35 625Q59 625 89 624T152 622Q187 622 217 623T270 625Q273 625 273 619T270 613Q234 613 216 608T191 587T185 543Z" />
<glyph unicode="M" horiz-adv-x="835" d="M119 109L129 602L153 600L143 109Q142 57 160 35T228 12Q230 12 230 6T228 0Q206 0 183 1T131 2Q105 2 82 1T39 0Q37 0 37 6T39 12Q81 12 99 34T119 109ZM812 12Q815 12 815 6T812 0Q788 0 758 1T694 2Q662 2 635 1T585
0Q583 0 583 6T585 12Q635 12 649 25T661 81L642 564L675 610L415 7Q414 3 407 3T398 7L147 542Q113 613 46 613Q44 613 44 619T46 625Q62 625 80 624T111 623Q127 623 140 624T161 625Q175 625 183 616T207 573L435 93L404 41L648 600Q653 612 661 618T678 625Q684
625 694 624T718 623Q745 623 762 624T798 625Q800 625 800 619T798 613Q750 613 727 599T706 544L726 81Q727 52 733 37T757 17T812 12Z" />
<glyph unicode="N" horiz-adv-x="727" d="M120 109V602L143 600V109Q143 57 161 35T221 12Q224 12 224 6T221 0Q201 0 180 1T133 2Q108 2 85 1T41 0Q39 0 39 6T41 12Q85 12 102 34T120 109ZM624 -12Q624 -14 619 -14T612 -14L152 543Q118 584 92 598T41 613Q38
613 38 619T41 625Q59 625 77 624T111 623Q129 623 145 624T169 625Q182 625 187 614T216 573L616 82L624 -12ZM624 515V-12L601 19V515Q601 567 584 590T525 613Q523 613 523 619T525 625Q545 625 566 624T613 622Q637 622 660 623T704 625Q707 625 707 619T704
613Q661 613 643 590T624 515Z" />
<glyph unicode="O" horiz-adv-x="766" d="M366 -12Q294 -12 236 13T136 84T72 187T49 312Q49 393 80 454T164 555T278 616T401 636Q475 636 533 610T633 538T695 436T717 319Q717 249 689 189T613 84T501 14T366 -12ZM401 9Q469 9 523 41T609 137T641 291Q641
385 607 457T509 571T359 613Q248 613 187 542T125 347Q125 276 144 215T201 107T289 35T401 9Z" />
<glyph unicode="P" horiz-adv-x="543" d="M192 85Q192 55 200 40T234 18T311 12Q314 12 314 6T311 0Q279 0 242 1T160 2Q127 2 97 1T42 0Q40 0 40 6T42 12Q79 12 97 17T121 37T127 81V544Q127 573 121 587T97 607T42 613Q40 613 40 619T42 625Q66 625 96 624T159
622Q185 622 222 625T298 628Q355 628 400 611T473 558T501 464Q501 411 482 373T430 311T358 274T280 262Q268 262 256 263T232 267Q228 268 229 274T234 280Q243 278 252 277T270 276Q311 276 347 294T405 349T427 443Q427 498 407 535T352 593T274 613Q241 613
224 610T199 591T192 542V85Z" />
<glyph unicode="Q" horiz-adv-x="766" d="M463 7Q491 -43 532 -81T620 -141T709 -163Q718 -163 728 -163T745 -161Q748 -159 749 -164T749 -171Q727 -176 706 -179T664 -183Q618 -183 566 -162T465 -99T377 2L463 7ZM366 -12Q294 -12 236 13T136 84T72 187T49
312Q49 393 80 454T164 555T278 616T401 636Q475 636 533 610T633 538T695 436T717 319Q717 249 689 189T613 84T501 14T366 -12ZM401 9Q469 9 523 41T609 137T641 291Q641 385 607 457T509 571T359 613Q248 613 187 542T125 347Q125 276 144 215T201 107T289 35T401
9Z" />
<glyph unicode="R" horiz-adv-x="673" d="M554 0Q537 0 500 40T409 154T289 332L345 350Q430 224 489 151T594 45T682 12Q685 12 685 6T682 0Q632 0 601 0T554 0ZM282 628Q364 628 407 595T451 503Q451 465 434 432T388 373T321 332T240 317Q230 317 218 317T195
319V81Q195 52 200 37T224 17T280 12Q283 12 283 6T280 0Q256 0 227 1T162 2Q129 2 99 1T43 0Q41 0 41 6T43 12Q80 12 98 17T124 37T131 81V544Q131 573 125 587T100 607T45 613Q42 613 42 619T45 625Q69 625 99 624T162 622Q188 622 223 625T282 628ZM383 468Q383
523 367 554T323 599T261 613Q237 613 222 609T201 590T195 542V344Q209 342 225 341T254 340Q323 340 353 369T383 468Z" />
<glyph unicode="S" horiz-adv-x="491" d="M145 508Q145 467 165 438T218 386T286 342Q323 321 357 297T414 240T437 159Q437 111 413 73T344 11T231 -12Q207 -12 184 -9T137 3T90 23Q85 26 84 30T81 42L68 178Q67 183 72 183T79 180Q86 150 99 119T133 62T184
20T254 4Q283 4 310 15T355 51T373 119Q373 168 352 200T297 257T227 302Q192 324 160 347T107 401T86 480Q86 533 113 567T183 619T272 636Q300 636 330 631T389 612Q397 609 400 605T404 595L411 481Q411 477 406 477T399 480Q397 500 388 524T362 571T319 607T256
621Q217 621 193 605T157 563T145 508Z" />
<glyph unicode="T" horiz-adv-x="634" d="M188 607Q126 607 95 575T49 466Q49 464 44 464T38 466Q40 479 42 502T46 553T50 605T52 647Q52 652 57 652T63 647Q63 637 73 633T95 627T117 625Q203 622 318 622Q389 622 430 623T511 625Q545 625 563 629T587 650Q588
654 593 654T598 650Q597 635 595 609T592 555T590 503T589 466Q589 464 583 464T577 466Q574 544 545 575T449 607Q407 607 386 603T359 586T352 542V81Q352 52 359 37T386 17T449 12Q452 12 452 6T449 0Q423 0 390 1T318 2Q281 2 248 1T188 0Q186 0 186 6T188
12Q229 12 250 17T279 37T286 81V544Q286 574 279 587T251 604T188 607Z" />
<glyph unicode="U" horiz-adv-x="698" d="M572 515Q572 564 551 588T485 613Q482 613 482 619T485 625Q508 625 532 624T585 622Q608 622 632 623T676 625Q678 625 678 619T676 613Q636 613 616 589T596 515V231Q596 154 567 100T484 16T360 -13Q286 -13 231 16T145
98T114 224V544Q114 573 108 587T84 607T29 613Q27 613 27 619T29 625Q53 625 82 624T146 622Q181 622 211 623T263 625Q266 625 266 619T263 613Q227 613 209 607T185 586T179 542V259Q179 140 232 79T382 17Q472 17 522 73T572 230V515Z" />
<glyph unicode="V" horiz-adv-x="666" d="M669 625Q672 625 672 619T669 613Q637 613 612 596T568 534L355 1Q354 -3 345 -3T333 1L84 542Q67 580 49 596T-1 613Q-4 613 -4 619T-1 625Q13 625 26 624T53 623T82 622Q112 622 135 622T176 624T209 625Q212 625 212
619T209 613Q170 613 155 598T156 546L372 73L341 27L545 540Q560 577 545 595T475 613Q472 613 472 619T475 625Q500 625 522 624T580 622Q609 622 626 623T669 625Z" />
<glyph unicode="W" horiz-adv-x="931" d="M484 326L355 1Q354 -3 345 -3T333 1L84 542Q73 569 61 584T35 606T-1 613Q-4 613 -4 619T-1 625Q13 625 26 624T53 623T82 622Q110 622 131 622T169 624T201 625Q204 625 204 619T201 613Q162 613 148 600T152 546L374
69L338 21L469 348L484 326ZM935 625Q937 625 937 619T935 613Q902 613 877 597T833 534L620 1Q619 -3 610 -3T598 1L350 542Q333 580 315 596T267 613Q264 613 264 619T267 625Q280 625 293 624T319 623T348 622Q380 622 399 623T433 625Q436 625 436 619T433
613Q402 613 400 602T417 546L640 69L604 21L811 538Q826 576 811 594T743 613Q740 613 740 619T743 625Q767 625 789 624T846 622Q874 622 892 623T935 625ZM474 348L550 540Q566 579 559 596T519 613Q516 613 516 619T519 625Q529 625 537 624T556 623T584 622Q612
622 629 623T671 625Q673 625 673 619T671 613Q640 613 615 597T572 534L489 326L474 348Z" />
<glyph unicode="X" horiz-adv-x="652" d="M413 0Q411 0 411 6T413 12Q449 12 459 20T455 51L133 540Q107 580 81 596T21 613Q19 613 19 619T21 625Q39 625 59 624T97 622Q138 622 172 623T231 625Q234 625 234 619T231 613Q195 613 185 605T189 573L513 83Q539
44 566 28T635 12Q637 12 637 6T635 0Q615 0 591 1T539 2Q499 2 469 1T413 0ZM17 0Q14 0 14 6T17 12Q50 12 85 34T153 103L304 310L316 299L175 102Q145 59 154 36T211 12Q214 12 214 6T211 0Q184 0 160 1T96 2Q71 2 56 1T17 0ZM332 315L319 325L454 516Q488 563
480 588T425 613Q422 613 422 619T425 625Q451 625 475 624T539 622Q565 622 580 623T618 625Q621 625 621 619T618 613Q585 613 549 588T477 514L332 315Z" />
<glyph unicode="Y" horiz-adv-x="609" d="M301 288L451 518Q480 565 472 589T419 613Q417 613 417 619T419 625Q446 625 471 624T536 622Q561 622 576 623T614 625Q616 625 616 619T614 613Q590 613 565 601T518 567T475 514L318 273L301 288ZM290 272L110 536Q82
579 57 596T-1 613Q-4 613 -4 619T-1 625Q16 625 35 624T70 622Q97 622 122 622T170 624T210 625Q212 625 212 619T210 613Q171 613 162 602T168 568L339 317L290 272ZM276 310L341 319V81Q341 52 347 37T371 17T426 12Q429 12 429 6T426 0Q402 0 373 1T308 2Q275
2 244 1T190 0Q187 0 187 6T190 12Q226 12 245 17T270 37T276 81V310Z" />
<glyph unicode="Z" horiz-adv-x="595" d="M55 13L450 600Q454 605 453 606T445 608Q348 608 284 607T182 600T122 583T88 550T64 497Q63 494 57 495T52 499L92 655Q93 657 99 656T104 653Q101 635 112 630T161 625Q221 625 308 625T526 625Q531 625 533 621T533
612L143 27Q139 22 140 21T148 19Q231 19 296 19T403 19Q448 19 478 31T526 69T551 135Q552 137 557 137T562 135L548 8Q548 5 546 2T539 -2Q465 -1 383 -1T218 0T61 0Q57 0 55 4T55 13Z" />
<glyph unicode="[" horiz-adv-x="274" d="M89 -106V715Q89 722 90 723T98 725Q122 725 148 725T197 725T236 725Q239 725 239 719T236 713Q198 713 179 707T154 686T147 642V-34Q147 -62 153 -77T179 -99T236 -105Q239 -105 239 -111T236 -117Q221 -117 198 -117T148
-117T98 -117Q92 -117 91 -115T89 -106Z" />
<glyph unicode="\" horiz-adv-x="341" d="M277 -163L26 718Q25 721 33 725T52 731T63 730L315 -152Q316 -154 307 -158T289 -164T277 -163Z" />
<glyph unicode="]" horiz-adv-x="274" d="M185 -106Q185 -113 184 -115T176 -117Q153 -117 127 -117T77 -117T38 -117Q35 -117 35 -111T38 -105Q76 -105 95 -99T120 -78T127 -34V642Q127 671 121 686T95 707T38 713Q35 713 35 719T38 725Q53 725 76 725T126 725T176
725Q182 725 183 724T185 715V-106Z" />
<glyph unicode="^" horiz-adv-x="392" d="M333 380Q335 378 331 376T324 375L196 547L68 375Q66 373 62 375T58 380L185 629Q186 634 196 634T207 629L333 380Z" />
<glyph unicode="_" horiz-adv-x="398" d="M34 -76Q31 -76 30 -66T30 -46T33 -36H364Q367 -36 368 -46T368 -66T364 -76H34Z" />
<glyph unicode="`" horiz-adv-x="213" d="M42 727Q41 731 49 731T70 729T93 723T103 716L154 476Q156 474 151 473T144 474L42 727Z" />
<glyph unicode="a" horiz-adv-x="419" d="M314 -6Q310 -8 306 -8Q293 -8 281 13T269 76V255Q269 302 261 328T238 364T205 374Q180 374 164 362T140 330T129 292Q128 278 121 266T92 254Q76 254 67 262T58 284Q58 302 76 321T121 357T179 384T237 395Q275 395
300 369T325 285V108Q325 73 334 57T363 41Q381 41 413 54Q418 56 420 51T417 43L314 -6ZM118 -7Q86 -7 70 10T54 51Q54 79 76 95T148 129L279 176L282 165L166 121Q143 112 134 101T124 73Q124 52 136 41T167 29Q178 29 188 31T208 39L293 82L295 70L208 23Q178
8 158 1T118 -7Z" />
<glyph unicode="b" horiz-adv-x="510" d="M253 -13Q214 -13 176 -1T103 42L150 131Q150 85 173 58T227 18T284 6Q342 6 374 51T407 180Q407 273 371 319T279 366Q238 366 203 341T138 283L130 290Q151 313 177 338T236 381T312 399Q355 399 391 379T450 317T473
214Q473 138 441 88T358 12T253 -13ZM41 -5Q37 -6 35 -2T36 5Q65 25 79 44T94 103V597Q94 633 87 649T61 665Q45 665 16 652Q12 650 10 656T11 663L136 724Q139 725 141 725Q144 725 147 723T150 717V46L41 -5Z" />
<glyph unicode="c" horiz-adv-x="411" d="M231 -12Q163 -12 120 17T57 92T36 185Q36 235 55 274T107 340T178 381T254 395Q283 395 309 388T353 366T371 334Q371 321 362 312T336 302Q320 302 310 312T292 335Q281 353 266 364T221 375Q164 375 133 331T102 215Q102
164 119 120T174 50T270 23Q297 23 323 30T372 56Q374 58 377 54T379 48Q344 17 309 3T231 -12Z" />
<glyph unicode="d" horiz-adv-x="512" d="M192 -13Q151 -13 115 11T58 77T36 178Q36 235 57 276T113 345T187 385T264 399Q299 399 330 387T386 354L375 287Q350 326 319 352T237 379Q176 379 139 336T101 208Q101 151 118 110T165 46T231 23Q276 23 311 48T377
108L385 101Q364 77 336 51T273 6T192 -13ZM416 717V110Q416 74 424 58T452 42Q462 42 475 44T504 56Q509 58 511 53T510 45L400 -7Q396 -9 392 -9Q380 -9 370 14T360 81V597Q360 633 353 649T327 665Q318 665 308 662T281 651Q277 649 275 655T275 662L402 724Q404
725 407 725Q410 725 413 723T416 717Z" />
<glyph unicode="e" horiz-adv-x="408" d="M224 -12Q162 -12 120 15T57 87T36 180Q36 241 64 289T141 366T251 395Q306 395 335 369T365 296Q365 285 363 279T353 273H295Q299 322 278 348T217 375Q161 375 132 333T102 219Q102 162 120 118T174 49T259 23Q285
23 312 31T363 56Q365 58 368 54T370 46Q334 15 298 2T224 -12ZM84 271L83 284L311 289V273L84 271Z" />
<glyph unicode="f" horiz-adv-x="305" d="M32 0Q29 0 29 6T32 12Q75 12 88 25T101 81V306Q101 330 96 341T76 356T28 360Q25 360 25 366T28 373Q70 373 84 383T99 418Q104 584 160 655T319 726Q372 726 403 711T435 673Q435 657 425 649T400 641Q388 641 380 647T361
667Q346 687 329 698T284 709Q229 709 194 645T158 439V81Q158 52 164 37T192 17T256 12Q259 12 259 6T256 0Q223 0 192 1T128 2Q102 2 77 1T32 0ZM283 337Q244 347 209 350T133 353V375Q172 375 208 378T286 385Q289 385 291 378T293 361Q293 354 290 345T283
337Z" />
<glyph unicode="g" horiz-adv-x="433" d="M173 -282Q101 -282 58 -248T15 -161Q15 -129 32 -99T84 -40T168 20L178 9Q153 -7 129 -24T90 -66T74 -129Q74 -186 111 -219T213 -252Q264 -252 299 -234T352 -185T370 -123Q370 -91 354 -72T312 -43T255 -27T192 -18Q161
-14 131 -7T81 17T61 62Q61 94 85 123T144 172L151 165Q131 153 120 135T108 97Q108 74 124 61T167 42T222 32Q257 27 292 21T356 4T404 -29T422 -88Q422 -122 403 -156T349 -218T270 -264T173 -282ZM196 155Q149 155 118 171T69 216T52 275Q52 310 72 336T127
378T207 393Q258 393 289 376T333 333T347 280Q347 246 329 218T276 172T196 155ZM217 169Q244 169 264 189T285 260Q285 314 254 346T182 378Q154 378 134 359T114 296Q114 256 129 228T168 185T217 169ZM290 318L291 351Q321 371 350 382T416 394Q418 394 419
387T421 372Q421 361 419 349T412 338Q402 342 385 347T346 353Q333 353 322 351T299 346L290 318Z" />
<glyph unicode="h" horiz-adv-x="499" d="M26 0Q23 0 23 6T26 12Q65 12 77 25T89 81V598Q89 633 82 649T57 666Q42 666 11 652Q7 650 5 655T6 663L133 725Q135 725 135 725T136 725Q139 725 142 723T145 717V81Q145 39 157 26T208 12Q211 12 211 6T208 0Q190 0
167 1T117 2Q91 2 67 1T26 0ZM295 0Q292 0 292 6T295 12Q334 12 346 25T358 81V240Q358 357 266 357Q229 357 191 334T126 270L122 282Q166 342 209 369T299 396Q354 396 384 366T414 275V81Q414 39 426 26T477 12Q480 12 480 6T477 0Q459 0 436 1T386 2Q360 2
336 1T295 0Z" />
<glyph unicode="i" horiz-adv-x="273" d="M53 0Q51 0 51 6T53 12Q92 12 104 25T117 81V268Q117 303 110 319T84 336Q76 336 65 333T39 322Q35 321 33 326T33 334L163 394Q166 395 167 395Q169 395 172 393T175 387Q175 379 174 348T173 269V81Q173 39 184 26T236
12Q239 12 239 6T236 0Q218 0 195 1T145 2Q119 2 96 1T53 0ZM137 512Q116 512 105 523T93 554Q93 574 104 585T137 596Q157 596 168 585T179 554Q179 512 137 512Z" />
<glyph unicode="j" horiz-adv-x="257" d="M166 387Q166 379 165 348T164 269V-48Q164 -114 152 -158T109 -232T24 -282Q22 -283 20 -278T19 -271Q69 -250 88 -203T108 -71V268Q108 303 101 319T77 336Q68 336 57 333T31 322Q27 321 25 326T25 334L155 394Q157
395 158 395Q161 395 163 393T166 387ZM128 512Q107 512 96 523T84 554Q84 574 95 585T128 596Q148 596 159 585T170 554Q170 512 128 512Z" />
<glyph unicode="k" horiz-adv-x="491" d="M26 0Q23 0 23 6T26 12Q65 12 77 25T89 81V598Q89 633 82 649T57 666Q42 666 11 652Q7 650 5 656T6 663L131 724Q134 725 136 725Q139 725 142 723T145 717V81Q145 39 157 26T208 12Q211 12 211 6T208 0Q190 0 167 1T117
2Q91 2 67 1T26 0ZM277 0Q275 0 275 6T277 12Q313 12 323 21T318 53L191 226L238 260L368 81Q395 42 424 27T483 12Q486 12 486 6T483 0Q465 0 442 1T392 2Q354 2 327 1T277 0ZM127 167L123 179L279 305Q318 336 311 355T254 374Q251 374 251 380T254 386Q278 386
302 385T368 384Q406 384 428 385T471 386Q474 386 474 380T471 374Q448 374 420 367T362 343T299 302L127 167Z" />
<glyph unicode="l" horiz-adv-x="258" d="M40 0Q37 0 37 6T40 12Q79 12 91 25T103 81V598Q103 633 96 649T71 666Q56 666 25 652Q22 650 19 656T20 663L148 724Q150 725 153 725Q155 725 158 723T162 717V81Q162 39 173 26T224 12Q227 12 227 6T224 0Q207 0 183
1T132 2Q106 2 82 1T40 0Z" />
<glyph unicode="m" horiz-adv-x="763" d="M560 0Q557 0 557 6T560 12Q599 12 611 25T623 81V240Q623 357 537 357Q501 357 466 334T403 270L399 282Q442 342 484 369T570 396Q622 396 650 367T679 275V81Q679 39 690 26T742 12Q745 12 745 6T742 0Q725 0 701 1T651
2Q625 2 602 1T560 0ZM302 0Q299 0 299 6T302 12Q341 12 352 25T364 81V240Q364 357 279 357Q243 357 208 334T145 270L141 282Q183 342 225 369T311 396Q363 396 392 367T421 277V81Q421 39 432 26T484 12Q487 12 487 6T484 0Q466 0 443 1T393 2Q367 2 343 1T302
0ZM45 0Q42 0 42 6T45 12Q84 12 95 25T107 81V279Q107 312 100 327T72 343Q62 343 49 339T18 328Q14 327 12 332T13 339L129 394Q132 395 135 395Q142 395 153 374T164 313V81Q164 39 175 26T226 12Q229 12 229 6T226 0Q209 0 186 1T136 2Q110 2 86 1T45 0Z" />
<glyph unicode="n" horiz-adv-x="517" d="M314 0Q311 0 311 6T314 12Q353 12 364 25T376 81V243Q376 303 354 330T284 358Q248 358 210 335T145 272L141 284Q185 343 228 371T317 399Q372 399 402 369T433 277V81Q433 39 444 26T495 12Q498 12 498 6T495 0Q478
0 455 1T405 2Q379 2 355 1T314 0ZM45 0Q42 0 42 6T45 12Q84 12 95 25T107 81V279Q107 312 100 327T72 343Q62 343 49 339T18 328Q14 327 12 332T13 339L129 394Q132 395 135 395Q142 395 153 374T164 313V81Q164 39 175 26T226 12Q229 12 229 6T226 0Q209 0 186
1T136 2Q110 2 86 1T45 0Z" />
<glyph unicode="o" horiz-adv-x="479" d="M231 -13Q172 -13 128 16T60 93T36 198Q36 250 55 288T106 350T175 387T249 399Q310 399 353 369T420 292T443 193Q443 129 414 83T337 12T231 -13ZM260 6Q313 6 344 43T375 165Q375 228 355 276T298 352T216 380Q163
380 133 341T103 229Q103 168 123 117T178 36T260 6Z" />
<glyph unicode="p" horiz-adv-x="511" d="M32 -275Q29 -275 29 -269T32 -263Q71 -263 83 -250T95 -194V276Q95 311 87 327T59 343Q49 343 36 340T6 329Q2 327 -1 332T0 340L111 393Q114 394 118 394Q132 394 141 372T151 305V-194Q151 -222 158 -237T187 -257T251
-263Q253 -263 253 -269T251 -275Q225 -275 193 -274T124 -273Q98 -273 74 -274T32 -275ZM257 -13Q219 -13 190 -4T125 30L139 85Q167 52 200 30T287 8Q339 8 373 54T408 184Q408 271 370 316T277 361Q233 361 200 337T134 278L126 286Q177 345 224 372T319 399Q360
399 395 378T451 315T472 215Q472 154 452 111T398 41T327 0T257 -13Z" />
<glyph unicode="q" horiz-adv-x="488" d="M192 -13Q151 -13 116 8T58 71T36 171Q36 234 56 277T108 348T178 387T254 399Q328 399 399 356L353 269Q353 304 337 328T291 366T223 380Q164 380 133 337T102 204Q102 116 136 68T226 20Q267 20 302 45T367 103L375
96Q354 73 328 48T268 5T192 -13ZM274 -275Q272 -275 272 -269T274 -263Q324 -263 338 -250T353 -194V352L453 388Q457 390 459 386T457 379Q434 366 422 347T409 295V-194Q409 -237 421 -250T473 -263Q475 -263 475 -269T473 -275Q454 -275 431 -274T380 -273Q351
-273 324 -274T274 -275Z" />
<glyph unicode="r" horiz-adv-x="364" d="M143 271L139 282Q176 327 200 351T241 385T275 395Q296 395 316 383T337 354Q337 341 329 332T304 323Q291 323 282 331T263 346T237 353Q228 353 218 348T191 326T143 271ZM45 0Q42 0 42 6T45 12Q84 12 95 25T107 81V279Q107
312 100 327T72 343Q62 343 49 339T18 328Q14 327 12 332T13 339L129 394Q132 395 135 395Q142 395 153 374T164 313V81Q164 53 171 38T199 17T261 12Q265 12 265 6T261 0Q237 0 205 1T136 2Q110 2 86 1T45 0Z" />
<glyph unicode="s" horiz-adv-x="338" d="M100 325Q100 299 113 281T147 251T191 226Q217 213 240 199T278 164T293 110Q293 78 277 51T230 6T152 -11Q127 -11 104 -5T56 19Q54 21 52 24T50 31L48 109Q48 112 53 112T60 110Q72 76 90 54T131 20T180 8Q212 8 229
24T246 71Q245 100 231 118T197 148T154 172Q129 184 107 197T70 232T55 287Q55 326 75 350T126 386T191 398Q210 398 228 395T264 383Q273 380 273 372Q273 356 272 339T271 299Q271 297 265 297T259 299Q259 322 243 340T203 368T155 379Q131 379 116 366T100
325Z" />
<glyph unicode="t" horiz-adv-x="338" d="M188 -12Q164 -12 142 -5T106 21T92 70V305Q92 329 89 341T75 356T41 360Q37 360 37 366T41 373Q81 374 106 395T135 449Q135 452 142 452T150 449V104Q150 63 170 43T229 23Q255 23 275 31T309 51Q313 53 316 49T316
41Q279 13 250 1T188 -12ZM285 337Q246 347 210 350T133 353V375Q173 375 210 378T289 385Q291 385 293 378T296 361Q296 354 293 345T285 337Z" />
<glyph unicode="u" horiz-adv-x="493" d="M182 -8Q133 -8 105 23T76 115V268Q76 307 70 324T46 342Q32 342 12 332Q8 331 6 337T7 344L118 394Q120 395 122 395Q125 395 128 393T132 387V148Q132 89 153 61T216 32Q254 32 292 55T360 117L365 106Q319 47 275 20T182
-8ZM397 387V107Q397 73 405 58T432 43Q442 43 454 46T485 57Q490 59 492 54T490 46L373 -9Q371 -10 369 -10Q361 -10 351 11T341 73V268Q341 307 335 324T311 342Q297 342 277 332Q273 331 271 337T273 344L384 394Q386 395 387 395Q390 395 393 393T397 387Z"
/>
<glyph unicode="v" horiz-adv-x="434" d="M431 386Q433 386 433 380T431 374Q406 374 389 359T354 301L229 1Q228 -3 219 -3T207 1L67 303Q46 348 33 361T0 374Q-3 374 -3 380T0 386Q15 386 32 385T69 384Q103 384 128 385T174 386Q177 386 177 380T174 374Q143
374 125 367T118 335L246 63L217 22L334 306Q349 342 332 358T262 374Q260 374 260 380T262 386Q286 386 307 385T363 384Q384 384 397 385T431 386Z" />
<glyph unicode="w" horiz-adv-x="671" d="M443 1L303 303Q283 348 270 361T238 374Q236 374 236 380T238 386Q253 386 270 385T305 384Q339 384 363 385T408 386Q411 386 411 380T408 374Q378 374 361 366T354 335L482 62L454 22L570 306Q585 342 568 358T498
374Q496 374 496 380T498 386Q522 386 543 385T599 384Q621 384 634 385T666 386Q669 386 669 380T666 374Q642 374 625 359T590 301L465 1Q464 -3 455 -3T443 1ZM207 1L67 303Q46 348 33 361T0 374Q-3 374 -3 380T0 386Q15 386 32 385T69 384Q101 384 125 385T172
386Q175 386 175 380T172 374Q140 374 124 366T118 335L247 62L217 22L326 285L343 274L229 1Q228 -3 219 -3T207 1Z" />
<glyph unicode="x" horiz-adv-x="439" d="M259 0Q256 0 256 6T259 12Q289 12 292 20T280 51L113 303Q86 343 60 358T16 374Q14 374 14 380T16 386Q31 386 47 385T78 384Q111 384 136 385T181 386Q183 386 183 380T181 374Q153 374 149 366T161 335L328 83Q355
42 382 27T427 12Q429 12 429 6T427 0Q412 0 395 1T363 2Q329 2 305 1T259 0ZM13 0Q11 0 11 6T13 12Q38 12 68 30T126 86L206 197L218 187L144 80Q129 58 125 43T133 20T181 12Q184 12 184 6T181 0Q158 0 137 1T81 2Q59 2 46 1T13 0ZM221 193L211 203L281 306Q305
342 301 358T244 374Q242 374 242 380T244 386Q268 386 289 385T345 384Q367 384 380 385T413 386Q415 386 415 380T413 374Q388 374 359 357T300 300L221 193Z" />
<glyph unicode="y" horiz-adv-x="435" d="M431 386Q434 386 434 380T431 374Q406 374 388 357T354 297L232 -28Q196 -124 163 -179T95 -258T16 -281Q-5 -281 -20 -272T-35 -242Q-35 -227 -26 -220T-4 -212Q16 -212 26 -218T46 -230T72 -236Q96 -236 118 -214T167
-137T228 10L227 -18L69 303Q47 347 35 360T3 374Q1 374 1 380T3 386Q19 386 36 385T70 384Q103 384 128 385T173 386Q175 386 175 380T173 374Q141 374 125 366T120 335L257 53L234 12L332 294Q347 339 332 356T263 374Q261 374 261 380T263 386Q287 386 308 385T364
384Q386 384 399 385T431 386Z" />
<glyph unicode="z" horiz-adv-x="405" d="M42 12L282 366Q286 373 277 373Q204 373 159 367T90 341T53 284Q52 281 47 282T42 286L76 415Q77 417 83 417T87 414Q83 397 94 392T135 386Q171 386 223 386T347 386Q351 386 354 382T355 374L119 22Q115 15 124 15Q193
15 234 18T299 30T334 60T358 114Q359 116 364 116T369 114L367 11Q367 7 365 4T358 0Q311 0 258 0T152 0T49 0Q45 0 43 4T42 12Z" />
<glyph unicode="{" horiz-adv-x="289" d="M32 298Q29 298 29 304T32 311Q68 316 84 349T106 430T112 529Q112 592 117 631T138 690T181 717T250 725Q254 725 254 719T250 713Q214 713 195 686T173 607Q172 527 169 476T157 393T125 342T64 305Q103 287 125 267T156
214T169 131T173 1Q175 -50 194 -77T250 -105Q254 -105 254 -111T250 -117Q206 -117 179 -110T138 -81T118 -22T112 80Q112 131 107 179T85 261T32 298Z" />
<glyph unicode="|" horiz-adv-x="168" d="M66 -154V731Q66 736 76 737T95 738T105 731V-154Q105 -159 96 -160T76 -161T66 -154Z" />
<glyph unicode="}" horiz-adv-x="283" d="M251 298Q215 294 199 261T177 180T171 80Q171 17 166 -21T146 -81T104 -109T33 -117Q29 -117 29 -111T33 -105Q69 -105 89 -78T110 1Q112 80 114 131T126 214T158 266T219 305Q180 322 158 342T127 393T115 475T110 607Q109
658 89 685T33 713Q29 713 29 719T33 725Q76 725 102 718T144 690T165 631T171 529Q171 479 176 431T198 349T251 311Q254 311 254 305T251 298Z" />
<glyph unicode="~" horiz-adv-x="443" d="M313 198Q345 198 361 210T389 236Q391 238 394 235T396 229Q372 199 355 183T323 160T290 153Q261 153 236 162T186 180T130 189Q100 189 87 179T55 151Q54 150 51 152T48 158Q59 172 76 189T115 220T161 234Q184 234
208 225T259 207T313 198Z" />
<glyph unicode="&#xa0;" horiz-adv-x="234" />
<glyph unicode="&#xa1;" horiz-adv-x="247" d="M128 365Q148 365 160 354T172 322Q172 303 160 292T128 280Q107 280 96 291T85 322Q85 342 96 353T128 365ZM169 -266Q170 -268 163 -270T145 -274T123 -275Q112 -275 101 -274T84 -271T78 -266Q91 -200 98 -126T110
24T118 165Q118 167 121 168T129 168T133 165Q136 99 139 24T150 -125T169 -266Z" />
<glyph unicode="&#xa2;" horiz-adv-x="538" d="M276 -102V561Q276 566 281 567T292 568T298 561V-102Q298 -106 293 -107T282 -108T276 -102ZM311 480Q346 480 390 473T463 451Q471 448 472 445T475 434L485 331Q485 328 480 327T473 330Q454 400 406 432T290
465Q238 465 197 438T131 362T107 251Q107 206 120 162T159 82T224 24T317 2Q377 2 420 35T482 140Q483 144 488 143T494 139L481 33Q480 25 478 22T467 15Q424 0 383 -6T307 -12Q231 -12 179 11T96 72T50 153T36 236Q36 306 72 361T171 448T311 480Z" />
<glyph unicode="&#xa3;" horiz-adv-x="432" d="M99 42H251Q294 42 316 48T350 71T368 124Q368 126 374 126T380 123Q376 102 374 72T371 15Q371 0 356 0H31Q29 0 29 5T31 12Q68 21 87 34T113 65T119 108Q119 147 113 175T98 228T83 277T76 332Q76 385 100 417T163
464T246 480Q265 480 288 477T336 464Q351 459 352 445L359 344Q359 340 354 340T347 344Q342 372 329 400T292 447T233 466Q197 466 176 451T146 412T137 364Q137 324 147 290T167 222T177 147Q177 114 168 93T143 57T110 30L99 42ZM53 241H274Q279 241 280 236T281
225T274 219H53Q49 219 48 224T47 235T53 241Z" />
<glyph unicode="&#xa4;" horiz-adv-x="414" d="M128 93L78 36L55 59L108 114L128 93ZM104 289L50 343L78 368L130 312L104 289ZM307 118L362 63L334 36L282 95L307 118ZM287 310L339 365L361 343L308 289L287 310ZM196 65Q153 65 123 85T77 137T61 202Q61 247
84 276T143 320T211 335Q250 335 281 318T330 270T349 201Q349 158 326 128T268 81T196 65ZM215 83Q250 83 271 108T292 180Q292 215 280 246T245 297T188 317Q156 317 136 294T115 223Q115 191 125 159T158 105T215 83Z" />
<glyph unicode="&#xa5;" horiz-adv-x="481" d="M103 153H373Q380 153 380 143T373 132H103Q96 132 96 142T103 153ZM103 213H373Q380 213 380 203T373 192H103Q96 192 96 202T103 213ZM233 196L331 367Q355 407 347 431T306 456Q303 456 303 462T306 468Q330 468
351 467T409 465Q429 465 441 466T471 468Q474 468 474 462T471 456Q439 456 408 433T352 366L249 194L233 196ZM221 195L97 385Q72 423 51 439T-3 456Q-5 456 -5 462T-3 468Q12 468 30 467T62 465Q86 465 109 466T153 467T188 468Q191 468 191 462T188 456Q158
456 148 446T153 413L270 235L221 195ZM270 141V81Q270 52 276 37T300 17T356 12Q358 12 358 6T356 0Q332 0 303 1T239 2Q207 2 177 1T121 0Q119 0 119 6T121 12Q158 12 177 17T202 37T208 81V141H270ZM208 200V228L270 237V200H208Z" />
<glyph unicode="&#xa6;" horiz-adv-x="168" d="M66 -154V216Q66 221 76 222T95 223T105 216V-154Q105 -159 96 -160T76 -161T66 -154ZM66 360V731Q66 736 76 737T95 738T105 731V360Q105 356 96 355T76 354T66 360Z" />
<glyph unicode="&#xa7;" horiz-adv-x="441" d="M298 11L290 20Q320 42 329 69T338 125Q338 169 321 200T277 254T220 296T164 334T120 379T103 440Q103 486 125 515T181 558T253 572Q281 572 302 567T340 553Q351 548 351 537L359 438Q359 436 353 436T347 438Q344
454 333 473T305 509T265 538T216 549Q189 549 170 532T151 476Q151 441 168 416T211 371T268 332T325 290T369 236T386 160Q386 134 379 111T353 65T298 11ZM209 -188Q181 -188 160 -183T121 -170Q117 -167 114 -163T109 -153L102 -55Q102 -52 108 -52T114 -55Q117
-71 128 -90T156 -126T196 -154T245 -165Q272 -165 292 -148T312 -92Q312 -56 295 -31T250 13T193 52T135 93T90 147T72 224Q72 251 79 273T105 319T160 373L168 364Q139 342 130 315T120 258Q120 214 137 183T182 129T240 88T298 49T342 4T360 -56Q360 -102 338
-131T281 -174T209 -188Z" />
<glyph unicode="&#xa8;" horiz-adv-x="322" d="M74 478Q54 478 43 488T31 519Q31 538 42 549T74 560Q94 560 104 549T115 519Q115 478 74 478ZM249 478Q230 478 218 488T206 519Q206 538 218 549T249 560Q291 560 291 519Q291 478 249 478Z" />
<glyph unicode="&#xa9;" horiz-adv-x="719" d="M369 -102Q319 -102 267 -84T171 -30T101 61T74 190Q74 259 100 315T173 413T277 476T398 498Q475 498 531 467T617 384T648 270Q648 208 616 156T528 71T402 39Q338 39 299 62T242 122T223 195Q223 249 249 287T315
344T395 364Q418 364 439 358T474 341T490 314Q490 302 483 294T462 285Q449 285 440 294T426 311Q416 326 404 336T368 347Q322 347 304 313T286 221Q286 180 300 145T347 87T435 65Q479 65 518 83T583 141T609 241Q609 306 577 359T491 443T367 475Q286 475 231
440T148 345T120 213Q120 141 145 87T212 -2T302 -54T396 -71Q432 -71 463 -68T525 -54T594 -25Q596 -24 598 -27T598 -32Q541 -76 485 -89T369 -102Z" />
<glyph unicode="&#xaa;" horiz-adv-x="278" d="M35 287Q32 287 31 294T31 307T34 314H259Q262 314 263 308T263 294T259 287H35ZM208 366Q197 361 188 374T178 419V538Q178 572 172 587T154 607T131 612Q111 612 99 597T83 561Q82 553 78 545T59 537Q49 537 42
543T35 558Q35 570 48 582T80 605T121 623T158 630Q182 630 199 613T216 558V441Q216 407 227 401T270 407Q274 409 276 405T276 398L208 366ZM80 365Q59 365 47 376T35 404Q35 421 47 430T92 452L188 487L189 477L108 445Q93 439 87 434T81 418Q81 406 88 398T109
390Q117 390 123 392T134 396L194 427L195 416L137 385Q117 374 105 370T80 365Z" />
<glyph unicode="&#xab;" horiz-adv-x="456" d="M236 40L59 189Q55 194 55 201T59 212L236 361Q238 364 241 361T243 356L121 201L243 46Q244 44 241 41T236 40ZM388 40L211 189Q207 194 207 201T211 212L388 361Q390 364 393 361T395 356L273 201L395 46Q397 44
394 41T388 40Z" />
<glyph unicode="&#xac;" horiz-adv-x="395" d="M364 77Q364 74 354 73T334 73T324 76V268H364V77ZM34 228Q31 228 30 238T30 258T33 268H364V228H34Z" />
<glyph unicode="&#xad;" horiz-adv-x="0" />
<glyph unicode="&#xae;" horiz-adv-x="750" d="M367 138Q314 138 262 156T167 212T99 303T74 428Q74 493 100 547T171 641T274 703T395 725Q482 725 545 688T643 588T678 451Q678 385 654 328T587 229T488 162T367 138ZM238 272Q236 272 236 277T238 283Q271 283
279 290T288 328V543Q288 570 280 578T238 587Q236 587 236 593T238 599Q252 599 272 599T309 598Q328 598 351 600T391 602Q435 602 458 586T482 536Q482 501 463 477T407 440T319 431V450Q377 440 407 452T437 513Q437 553 420 571T374 589Q350 589 340 583T330
541V328Q330 298 339 291T381 283Q383 283 383 278T381 272Q367 272 349 272T309 273Q292 273 271 273T238 272ZM395 166Q470 166 525 197T609 286T639 422Q639 502 604 565T505 665T363 702Q282 702 227 668T145 576T117 454Q117 384 141 331T207 241T297 185T395
166ZM485 272Q475 272 449 316T385 435L426 449Q457 391 477 355T518 301T564 280Q566 280 566 276T564 272Q534 272 514 272T485 272Z" />
<glyph unicode="&#xaf;" horiz-adv-x="345" d="M47 483Q43 483 42 490T41 504T47 511H298Q303 511 304 504T304 490T298 483H47Z" />
<glyph unicode="&#xb0;" horiz-adv-x="332" d="M167 373Q105 373 67 410T29 503Q29 538 46 566T94 612T167 630Q229 630 266 593T303 501Q303 447 266 410T167 373ZM174 385Q206 385 221 398T240 437T245 494Q245 619 161 619Q130 619 115 605T94 564T88 506Q88
454 105 420T174 385Z" />
<glyph unicode="&#xb1;" horiz-adv-x="398" d="M34 1Q31 1 30 10T30 28T33 37H364Q367 37 368 28T368 10T364 1H34ZM34 233Q31 233 30 243T30 262T33 272H364Q367 272 368 263T368 243T364 233H34ZM219 88Q219 85 209 84T189 84T179 87V418Q179 421 189 421T209
422T219 418V88Z" />
<glyph unicode="&#xb2;" horiz-adv-x="251" d="M31 408Q38 430 52 454T84 501T118 550T145 599T156 649Q156 678 142 693T106 708Q82 708 64 692T40 650Q39 647 33 648T28 653Q38 684 59 706T124 729Q164 729 184 708T204 658Q204 630 186 602T142 545T95 491T64
443Q64 440 67 440Q114 440 140 441T180 447T200 463T211 494Q211 496 214 496T218 494L217 407Q217 402 213 402Q174 402 125 402T34 402Q29 402 31 408Z" />
<glyph unicode="&#xb3;" horiz-adv-x="251" d="M120 567L119 576Q159 571 188 553T217 495Q217 470 206 448T172 411T115 396Q75 396 53 416T23 465Q22 469 28 470T35 468Q41 451 58 433T108 415Q133 415 151 429T169 484Q169 521 148 543T94 565Q91 565 91 571T94
577Q115 577 129 588T149 616T156 649Q156 674 142 690T104 707Q82 707 64 691T41 650Q40 647 34 648T29 653Q37 684 59 706T123 729Q162 729 183 708T204 657Q204 635 193 616T163 585T120 567Z" />
<glyph unicode="&#xb4;" horiz-adv-x="212" d="M69 474Q68 471 63 472T58 476L110 716Q111 719 120 722T142 728T164 731T171 727L69 474Z" />
<glyph unicode="&#xb6;" horiz-adv-x="639" d="M332 -193Q306 -193 290 -181T273 -150Q273 -135 281 -126T304 -116Q323 -116 330 -124T341 -143T352 -162T378 -171Q397 -171 408 -154T424 -96T429 8V125Q411 124 392 123T350 122Q298 122 246 135T150 179T81
260T54 386Q54 507 126 567T323 628Q357 628 392 625T472 622Q500 622 528 623T582 625Q584 625 584 619T582 613Q539 613 516 592T493 532L494 55Q494 -74 456 -133T332 -193Z" />
<glyph unicode="&#xb7;" horiz-adv-x="195" d="M97 157Q77 157 65 168T53 200Q53 219 65 230T97 242Q118 242 129 231T140 200Q140 180 129 169T97 157Z" />
<glyph unicode="&#xb8;" horiz-adv-x="232" d="M114 -2Q103 -37 102 -53T110 -78T145 -102Q166 -114 182 -132T199 -179Q199 -200 189 -222T155 -259T95 -275Q68 -275 50 -266T31 -237Q31 -223 40 -215T61 -207Q75 -207 81 -214T91 -231T102 -248T127 -255Q161
-255 161 -217Q161 -191 143 -171T75 -124Q62 -117 61 -113T66 -94Q74 -75 78 -64T87 -40T101 -1L114 -2Z" />
<glyph unicode="&#xb9;" horiz-adv-x="262" d="M47 402Q45 402 45 408T47 414Q78 414 92 418T111 437T115 483V601Q115 647 113 665T96 682T40 661Q36 660 33 665T34 672L149 727Q153 729 156 726T159 720V483Q159 452 162 437T180 418T223 414Q226 414 226 408T223
402Q206 402 185 403T138 405Q112 405 89 404T47 402Z" />
<glyph unicode="&#xba;" horiz-adv-x="315" d="M37 287Q34 287 33 294T33 307T36 314H279Q282 314 283 308T283 294T279 287H37ZM153 359Q114 359 86 378T42 429T26 498Q26 543 47 572T101 615T165 630Q205 630 233 611T276 561T291 495Q291 457 272 426T222 377T153
359ZM168 374Q204 374 225 401T247 477Q247 534 219 574T146 614Q110 614 90 589T70 517Q70 480 82 447T117 394T168 374Z" />
<glyph unicode="&#xbb;" horiz-adv-x="456" d="M220 361L397 212Q401 208 401 201T397 189L220 40Q219 37 216 40T213 46L335 200L213 356Q212 358 215 361T220 361ZM68 361L245 212Q250 208 250 201T245 189L68 40Q67 37 64 40T61 46L183 200L61 356Q60 358 63
361T68 361Z" />
<glyph unicode="&#xbc;" horiz-adv-x="600" d="M47 309Q45 309 45 314T47 320Q78 320 92 324T111 343T115 389V508Q115 553 113 571T96 587T40 567Q36 566 33 571T34 578L149 634Q153 636 156 633T159 627V389Q159 358 162 343T180 324T223 320Q226 320 226 315T223
309Q206 309 185 310T138 311Q112 311 89 310T47 309ZM183 0Q183 -2 177 0T165 5T159 10L439 627Q440 629 446 627T458 623T463 618L183 0ZM528 41Q528 22 534 17T572 11Q573 11 573 5T572 -1Q559 -1 545 -1T511 0Q489 0 469 0T433 -1Q432 -1 432 5T433 11Q468
11 477 16T487 41V272L502 285L396 112Q394 109 398 109Q438 109 465 110T517 112T572 115Q575 115 575 102T572 88Q531 90 484 92T362 94Q360 94 358 96T358 100L515 323Q517 326 522 325T528 321V41Z" />
<glyph unicode="&#xbd;" horiz-adv-x="610" d="M47 309Q45 309 45 314T47 320Q78 320 92 324T111 343T115 389V508Q115 553 113 571T96 587T40 567Q36 566 33 571T34 578L149 634Q153 636 156 633T159 627V389Q159 358 162 343T180 324T223 320Q226 320 226 315T223
309Q206 309 185 310T138 311Q112 311 89 310T47 309ZM183 0Q183 -2 177 0T165 5T159 10L439 627Q440 629 446 627T458 623T463 618L183 0ZM390 6Q397 28 411 51T443 99T477 147T504 197T515 247Q515 275 501 289T465 304Q441 304 423 288T399 248Q398 244 392
245T387 250Q397 281 418 303T483 326Q523 326 543 306T563 255Q563 228 545 199T501 142T454 88T423 41Q423 38 426 38Q473 38 499 39T539 45T559 61T570 91Q570 93 573 93T577 91L576 5Q576 0 572 0Q533 0 484 0T393 0Q389 0 390 6Z" />
<glyph unicode="&#xbe;" horiz-adv-x="589" d="M120 474L119 482Q159 477 188 459T217 401Q217 376 206 354T172 318T115 303Q75 303 53 323T23 372Q22 376 28 377T35 374Q41 357 58 339T108 321Q133 321 151 336T169 389Q169 428 148 449T94 471Q91 471 91 477T94
483Q115 483 129 494T149 522T156 555Q156 580 142 596T104 613Q82 613 64 596T41 557Q40 553 34 554T29 559Q37 590 59 612T123 635Q162 635 183 615T204 563Q204 541 193 523T163 491T120 474ZM172 0Q172 -2 166 0T154 5T148 10L428 627Q429 629 435 627T447
623T452 618L172 0ZM517 41Q517 22 523 17T561 11Q562 11 562 5T561 -1Q548 -1 534 -1T500 0Q478 0 458 0T422 -1Q421 -1 421 5T422 11Q457 11 466 16T476 41V272L491 285L385 112Q383 109 387 109Q427 109 454 110T506 112T561 115Q564 115 564 102T561 88Q520
90 473 92T351 94Q349 94 347 96T347 100L504 323Q506 326 511 325T517 321V41Z" />
<glyph unicode="&#xbf;" horiz-adv-x="327" d="M180 361Q200 361 212 350T224 318Q224 299 212 288T180 276Q159 276 148 287T137 318Q137 338 148 349T180 361ZM168 -262Q195 -262 202 -247T212 -215Q213 -204 217 -194T229 -178T250 -171Q267 -171 275 -182T284
-205Q284 -233 249 -254T165 -275Q128 -275 98 -262T49 -222T30 -155Q30 -123 41 -100T70 -58T106 -22Q140 12 154 39T169 102Q169 114 168 127T163 157Q162 160 168 161T175 159Q187 131 194 96T201 40Q201 11 191 -8T165 -43T134 -75T108 -113T97 -167Q97 -209
117 -235T168 -262Z" />
<glyph unicode="&#xc0;" horiz-adv-x="702" d="M213 331L228 352H434L441 331H213ZM699 12Q703 12 703 6T699 0Q670 0 640 2T582 4Q551 4 528 2T477 0Q473 0 473 6T477 12Q530 12 543 27T536 86L314 555L339 586L145 127Q120 66 142 39T229 12Q234 12 234 6T229
0Q199 0 174 2T111 4Q75 4 54 2T1 0Q-3 0 -3 6T1 12Q28 12 48 22T85 59T124 136L335 634Q337 637 342 637T348 634L584 137Q607 88 625 61T660 23T699 12ZM440 679Q389 702 337 721T217 756Q211 757 219 762T240 773T266 783T282 784Q320 761 359 737T444 689Q448
688 446 683T440 679Z" />
<glyph unicode="&#xc1;" horiz-adv-x="702" d="M213 331L228 352H434L441 331H213ZM699 12Q703 12 703 6T699 0Q670 0 640 2T582 4Q551 4 528 2T477 0Q473 0 473 6T477 12Q530 12 543 27T536 86L314 555L339 586L145 127Q120 66 142 39T229 12Q234 12 234 6T229
0Q199 0 174 2T111 4Q75 4 54 2T1 0Q-3 0 -3 6T1 12Q28 12 48 22T85 59T124 136L335 634Q337 637 342 637T348 634L584 137Q607 88 625 61T660 23T699 12ZM244 679Q240 677 238 682T239 689Q286 713 324 737T402 784Q405 787 417 783T443 773T464 762T466 756Q399
740 347 721T244 679Z" />
<glyph unicode="&#xc2;" horiz-adv-x="702" d="M213 331L228 352H434L441 331H213ZM699 12Q703 12 703 6T699 0Q670 0 640 2T582 4Q551 4 528 2T477 0Q473 0 473 6T477 12Q530 12 543 27T536 86L314 555L339 586L145 127Q120 66 142 39T229 12Q234 12 234 6T229
0Q199 0 174 2T111 4Q75 4 54 2T1 0Q-3 0 -3 6T1 12Q28 12 48 22T85 59T124 136L335 634Q337 637 342 637T348 634L584 137Q607 88 625 61T660 23T699 12ZM226 687L329 784Q334 789 341 789T352 784L454 687Q457 686 454 683T449 680L341 738L232 680Q231 679 228
682T226 687Z" />
<glyph unicode="&#xc3;" horiz-adv-x="702" d="M213 331L228 352H434L441 331H213ZM699 12Q703 12 703 6T699 0Q670 0 640 2T582 4Q551 4 528 2T477 0Q473 0 473 6T477 12Q530 12 543 27T536 86L314 555L339 586L145 127Q120 66 142 39T229 12Q234 12 234 6T229
0Q199 0 174 2T111 4Q75 4 54 2T1 0Q-3 0 -3 6T1 12Q28 12 48 22T85 59T124 136L335 634Q337 637 342 637T348 634L584 137Q607 88 625 61T660 23T699 12ZM418 754Q437 754 447 762T467 781Q469 783 472 780T474 774Q447 736 430 724T395 712Q373 712 353 718T311
731T264 737Q244 737 235 729T215 710Q213 709 210 711T208 717Q216 728 229 742T259 767T293 778Q310 778 329 772T371 760T418 754Z" />
<glyph unicode="&#xc4;" horiz-adv-x="702" d="M213 331L228 352H434L441 331H213ZM699 12Q703 12 703 6T699 0Q670 0 640 2T582 4Q551 4 528 2T477 0Q473 0 473 6T477 12Q530 12 543 27T536 86L314 555L339 586L145 127Q120 66 142 39T229 12Q234 12 234 6T229
0Q199 0 174 2T111 4Q75 4 54 2T1 0Q-3 0 -3 6T1 12Q28 12 48 22T85 59T124 136L335 634Q337 637 342 637T348 634L584 137Q607 88 625 61T660 23T699 12ZM254 717Q234 717 223 727T211 758Q211 777 222 788T254 799Q274 799 284 788T295 758Q295 717 254 717ZM429
717Q410 717 398 727T386 758Q386 777 398 788T429 799Q471 799 471 758Q471 717 429 717Z" />
<glyph unicode="&#xc5;" horiz-adv-x="702" d="M213 331L228 352H434L441 331H213ZM699 12Q703 12 703 6T699 0Q670 0 640 2T582 4Q551 4 528 2T477 0Q473 0 473 6T477 12Q530 12 543 27T536 86L314 555L339 586L145 127Q120 66 142 39T229 12Q234 12 234 6T229
0Q199 0 174 2T111 4Q75 4 54 2T1 0Q-3 0 -3 6T1 12Q28 12 48 22T85 59T124 136L335 634Q337 637 342 637T348 634L584 137Q607 88 625 61T660 23T699 12ZM336 664Q295 664 272 688T248 744Q248 770 263 787T301 812T346 821Q382 821 408 798T434 742Q434 718 419
701T382 674T336 664ZM351 675Q388 675 388 724Q388 759 370 785T326 811Q293 811 293 764Q293 743 300 723T320 689T351 675Z" />
<glyph unicode="&#xc6;" horiz-adv-x="874" d="M3 0Q-1 0 -1 6T3 12Q34 12 72 43T150 132L453 574Q472 600 462 606T389 613Q387 613 387 619T389 625H783Q792 625 792 616L794 493Q794 490 789 490T783 492Q781 523 767 548T730 589T676 604H621Q588 604 571
600T547 582T541 543V85Q541 59 547 45T570 26T619 21H692Q721 21 746 37T789 82T813 149Q813 152 819 151T825 147Q821 121 819 84T816 15Q816 0 800 0H392Q390 0 390 6T392 12Q428 12 446 17T471 37T477 81V588L502 604L176 126Q136 69 148 41T224 12Q229 12
229 6T224 0Q192 0 167 2T101 4Q68 4 49 2T3 0ZM290 315L305 336H516L523 315H290ZM744 233Q744 277 723 296T651 315H505V336H653Q702 336 722 352T743 406Q743 408 749 408T755 406Q755 376 755 360T754 325Q754 302 755 280T756 233Q756 231 750 231T744 233Z"
/>
<glyph unicode="&#xc7;" horiz-adv-x="669" d="M415 636Q461 636 510 627T590 601Q599 596 601 592T605 577L616 465Q616 463 611 462T605 464Q582 545 521 579T376 614Q299 614 243 581T155 487T124 345Q124 274 146 212T207 102T298 29T408 2Q478 2 531 40T614
163Q615 167 620 166T626 162L612 49Q610 37 608 34T596 26Q548 6 501 -3T406 -12Q311 -12 243 17T132 95T69 202T49 318Q49 390 79 448T161 548T278 613T415 636ZM389 -2Q378 -37 377 -53T385 -78T420 -102Q441 -114 457 -132T474 -179Q474 -200 464 -222T430
-259T370 -275Q343 -275 325 -266T306 -237Q306 -223 315 -215T336 -207Q350 -207 356 -214T366 -231T377 -248T402 -255Q436 -255 436 -217Q436 -191 418 -171T350 -124Q337 -117 336 -113T341 -94Q349 -75 353 -64T362 -40T376 -1L389 -2Z" />
<glyph unicode="&#xc8;" horiz-adv-x="537" d="M462 0H43Q41 0 41 6T43 12Q80 12 98 17T122 37T129 81V544Q129 573 123 587T98 607T43 613Q41 613 41 619T43 625H445Q454 625 454 616L456 493Q456 490 451 490T445 492Q442 546 413 575T336 604H275Q241 604 224
599T200 580T193 539V85Q193 59 199 45T222 26T272 21H352Q400 21 432 55T475 149Q475 152 481 151T487 147Q483 121 481 84T478 15Q478 0 462 0ZM406 233Q406 277 385 296T313 315H163V336H316Q364 336 384 352T405 406Q405 408 411 408T417 406Q417 376 417 360T416
325Q416 302 417 280T418 233Q418 231 412 231T406 233ZM391 679Q340 702 288 721T168 756Q162 757 170 762T191 773T217 783T233 784Q271 761 310 737T395 689Q399 688 397 683T391 679Z" />
<glyph unicode="&#xc9;" horiz-adv-x="537" d="M462 0H43Q41 0 41 6T43 12Q80 12 98 17T122 37T129 81V544Q129 573 123 587T98 607T43 613Q41 613 41 619T43 625H445Q454 625 454 616L456 493Q456 490 451 490T445 492Q442 546 413 575T336 604H275Q241 604 224
599T200 580T193 539V85Q193 59 199 45T222 26T272 21H352Q400 21 432 55T475 149Q475 152 481 151T487 147Q483 121 481 84T478 15Q478 0 462 0ZM406 233Q406 277 385 296T313 315H163V336H316Q364 336 384 352T405 406Q405 408 411 408T417 406Q417 376 417 360T416
325Q416 302 417 280T418 233Q418 231 412 231T406 233ZM195 679Q191 677 189 682T190 689Q237 713 275 737T353 784Q356 787 368 783T394 773T415 762T417 756Q350 740 298 721T195 679Z" />
<glyph unicode="&#xca;" horiz-adv-x="537" d="M462 0H43Q41 0 41 6T43 12Q80 12 98 17T122 37T129 81V544Q129 573 123 587T98 607T43 613Q41 613 41 619T43 625H445Q454 625 454 616L456 493Q456 490 451 490T445 492Q442 546 413 575T336 604H275Q241 604 224
599T200 580T193 539V85Q193 59 199 45T222 26T272 21H352Q400 21 432 55T475 149Q475 152 481 151T487 147Q483 121 481 84T478 15Q478 0 462 0ZM406 233Q406 277 385 296T313 315H163V336H316Q364 336 384 352T405 406Q405 408 411 408T417 406Q417 376 417 360T416
325Q416 302 417 280T418 233Q418 231 412 231T406 233ZM178 692L281 790Q286 795 293 795T304 790L406 692Q409 691 406 688T401 685L293 743L184 685Q183 684 180 687T178 692Z" />
<glyph unicode="&#xcb;" horiz-adv-x="537" d="M462 0H43Q41 0 41 6T43 12Q80 12 98 17T122 37T129 81V544Q129 573 123 587T98 607T43 613Q41 613 41 619T43 625H445Q454 625 454 616L456 493Q456 490 451 490T445 492Q442 546 413 575T336 604H275Q241 604 224
599T200 580T193 539V85Q193 59 199 45T222 26T272 21H352Q400 21 432 55T475 149Q475 152 481 151T487 147Q483 121 481 84T478 15Q478 0 462 0ZM406 233Q406 277 385 296T313 315H163V336H316Q364 336 384 352T405 406Q405 408 411 408T417 406Q417 376 417 360T416
325Q416 302 417 280T418 233Q418 231 412 231T406 233ZM205 717Q185 717 174 727T162 758Q162 777 173 788T205 799Q225 799 235 788T246 758Q246 717 205 717ZM380 717Q361 717 349 727T337 758Q337 777 349 788T380 799Q422 799 422 758Q422 717 380 717Z" />
<glyph unicode="&#xcc;" horiz-adv-x="332" d="M199 81Q199 52 205 37T229 17T284 12Q287 12 287 6T284 0Q260 0 231 1T165 2Q132 2 102 1T47 0Q44 0 44 6T47 12Q83 12 102 17T127 37T133 81V544Q133 573 127 587T102 607T47 613Q44 613 44 619T47 625Q71 625
101 624T165 622Q201 622 231 623T284 625Q287 625 287 619T284 613Q248 613 230 607T205 586T199 542V81ZM265 679Q214 702 162 721T42 756Q36 757 44 762T65 773T91 783T107 784Q145 761 184 737T269 689Q273 688 271 683T265 679Z" />
<glyph unicode="&#xcd;" horiz-adv-x="332" d="M199 81Q199 52 205 37T229 17T284 12Q287 12 287 6T284 0Q260 0 231 1T165 2Q132 2 102 1T47 0Q44 0 44 6T47 12Q83 12 102 17T127 37T133 81V544Q133 573 127 587T102 607T47 613Q44 613 44 619T47 625Q71 625
101 624T165 622Q201 622 231 623T284 625Q287 625 287 619T284 613Q248 613 230 607T205 586T199 542V81ZM69 679Q65 677 63 682T64 689Q111 713 149 737T227 784Q230 787 242 783T268 773T289 762T291 756Q224 740 172 721T69 679Z" />
<glyph unicode="&#xce;" horiz-adv-x="332" d="M199 81Q199 52 205 37T229 17T284 12Q287 12 287 6T284 0Q260 0 231 1T165 2Q132 2 102 1T47 0Q44 0 44 6T47 12Q83 12 102 17T127 37T133 81V544Q133 573 127 587T102 607T47 613Q44 613 44 619T47 625Q71 625
101 624T165 622Q201 622 231 623T284 625Q287 625 287 619T284 613Q248 613 230 607T205 586T199 542V81ZM52 692L155 790Q160 795 167 795T178 790L280 692Q283 691 280 688T275 685L167 743L58 685Q57 684 54 687T52 692Z" />
<glyph unicode="&#xcf;" horiz-adv-x="332" d="M199 81Q199 52 205 37T229 17T284 12Q287 12 287 6T284 0Q260 0 231 1T165 2Q132 2 102 1T47 0Q44 0 44 6T47 12Q83 12 102 17T127 37T133 81V544Q133 573 127 587T102 607T47 613Q44 613 44 619T47 625Q71 625
101 624T165 622Q201 622 231 623T284 625Q287 625 287 619T284 613Q248 613 230 607T205 586T199 542V81ZM95 717Q75 717 64 727T52 758Q52 777 63 788T95 799Q115 799 126 788T137 758Q137 738 126 728T95 717ZM238 717Q218 717 207 727T195 758Q195 777 206
788T238 799Q279 799 279 758Q279 717 238 717Z" />
<glyph unicode="&#xd0;" horiz-adv-x="691" d="M53 301Q50 301 49 306T49 316T53 321H322Q325 321 325 316T326 306T322 301H53ZM303 -4Q274 -4 232 -1T153 2Q120 2 90 1T35 0Q33 0 33 6T35 12Q71 12 90 17T115 37T121 81V544Q121 573 115 587T91 607T36 613Q34
613 34 619T36 625Q60 625 90 624T153 622Q186 622 224 624T289 627Q395 627 474 587T598 478T642 323Q642 248 616 188T542 85T433 19T303 -4ZM293 11Q373 11 434 44T530 143T566 301Q566 388 533 458T441 570T298 612Q238 612 212 600T186 542V92Q186 50 206
31T293 11Z" />
<glyph unicode="&#xd1;" horiz-adv-x="727" d="M120 109V602L143 600V109Q143 57 161 35T221 12Q224 12 224 6T221 0Q201 0 180 1T133 2Q108 2 85 1T41 0Q39 0 39 6T41 12Q85 12 102 34T120 109ZM624 -12Q624 -14 619 -14T612 -14L152 543Q118 584 92 598T41 613Q38
613 38 619T41 625Q59 625 77 624T111 623Q129 623 145 624T169 625Q182 625 187 614T216 573L616 82L624 -12ZM624 515V-12L601 19V515Q601 567 584 590T525 613Q523 613 523 619T525 625Q545 625 566 624T613 622Q637 622 660 623T704 625Q707 625 707 619T704
613Q661 613 643 590T624 515ZM453 754Q472 754 482 762T502 781Q504 783 507 780T509 774Q482 736 465 724T430 712Q408 712 388 718T346 731T299 737Q279 737 270 729T250 710Q248 709 245 711T243 717Q251 728 264 742T294 767T328 778Q345 778 364 772T406
760T453 754Z" />
<glyph unicode="&#xd2;" horiz-adv-x="766" d="M366 -12Q294 -12 236 13T136 84T72 187T49 312Q49 393 80 454T164 555T278 616T401 636Q475 636 533 610T633 538T695 436T717 319Q717 249 689 189T613 84T501 14T366 -12ZM401 9Q469 9 523 41T609 137T641 291Q641
385 607 457T509 571T359 613Q248 613 187 542T125 347Q125 276 144 215T201 107T289 35T401 9ZM484 679Q433 702 381 721T261 756Q255 757 263 762T284 773T310 783T326 784Q364 761 403 737T488 689Q492 688 490 683T484 679Z" />
<glyph unicode="&#xd3;" horiz-adv-x="766" d="M366 -12Q294 -12 236 13T136 84T72 187T49 312Q49 393 80 454T164 555T278 616T401 636Q475 636 533 610T633 538T695 436T717 319Q717 249 689 189T613 84T501 14T366 -12ZM401 9Q469 9 523 41T609 137T641 291Q641
385 607 457T509 571T359 613Q248 613 187 542T125 347Q125 276 144 215T201 107T289 35T401 9ZM288 679Q284 677 282 682T283 689Q330 713 368 737T446 784Q449 787 461 783T487 773T508 762T510 756Q443 740 391 721T288 679Z" />
<glyph unicode="&#xd4;" horiz-adv-x="766" d="M366 -12Q294 -12 236 13T136 84T72 187T49 312Q49 393 80 454T164 555T278 616T401 636Q475 636 533 610T633 538T695 436T717 319Q717 249 689 189T613 84T501 14T366 -12ZM401 9Q469 9 523 41T609 137T641 291Q641
385 607 457T509 571T359 613Q248 613 187 542T125 347Q125 276 144 215T201 107T289 35T401 9ZM271 692L374 790Q379 795 386 795T397 790L499 692Q502 691 499 688T494 685L386 743L277 685Q276 684 273 687T271 692Z" />
<glyph unicode="&#xd5;" horiz-adv-x="766" d="M366 -12Q294 -12 236 13T136 84T72 187T49 312Q49 393 80 454T164 555T278 616T401 636Q475 636 533 610T633 538T695 436T717 319Q717 249 689 189T613 84T501 14T366 -12ZM401 9Q469 9 523 41T609 137T641 291Q641
385 607 457T509 571T359 613Q248 613 187 542T125 347Q125 276 144 215T201 107T289 35T401 9ZM462 754Q481 754 491 762T511 781Q513 783 516 780T518 774Q491 736 474 724T439 712Q417 712 397 718T355 731T308 737Q288 737 279 729T259 710Q257 709 254 711T252
717Q260 728 273 742T303 767T337 778Q354 778 373 772T415 760T462 754Z" />
<glyph unicode="&#xd6;" horiz-adv-x="766" d="M366 -12Q294 -12 236 13T136 84T72 187T49 312Q49 393 80 454T164 555T278 616T401 636Q475 636 533 610T633 538T695 436T717 319Q717 249 689 189T613 84T501 14T366 -12ZM401 9Q469 9 523 41T609 137T641 291Q641
385 607 457T509 571T359 613Q248 613 187 542T125 347Q125 276 144 215T201 107T289 35T401 9ZM298 717Q278 717 267 727T255 758Q255 777 266 788T298 799Q318 799 328 788T339 758Q339 717 298 717ZM473 717Q454 717 442 727T430 758Q430 777 442 788T473 799Q515
799 515 758Q515 717 473 717Z" />
<glyph unicode="&#xd7;" horiz-adv-x="382" d="M88 59Q87 57 79 63T65 77T59 86L293 320Q296 322 303 316T317 302T322 291L88 59ZM61 293Q59 295 65 302T79 316T88 321L322 88Q324 86 318 78T304 64T293 59L61 293Z" />
<glyph unicode="&#xd8;" horiz-adv-x="771" d="M80 -7Q79 -9 75 -7T67 1T65 8L678 630Q681 633 689 627T694 617L80 -7ZM366 -12Q294 -12 236 13T136 84T72 187T49 312Q49 393 80 454T164 555T278 616T401 636Q475 636 533 610T633 538T695 436T717 319Q717 249
689 189T613 84T501 14T366 -12ZM401 9Q469 9 523 41T609 137T641 291Q641 385 607 457T509 571T359 613Q248 613 187 542T125 347Q125 276 144 215T201 107T289 35T401 9Z" />
<glyph unicode="&#xd9;" horiz-adv-x="698" d="M572 515Q572 564 551 588T485 613Q482 613 482 619T485 625Q508 625 532 624T585 622Q608 622 632 623T676 625Q678 625 678 619T676 613Q636 613 616 589T596 515V231Q596 154 567 100T484 16T360 -13Q286 -13
231 16T145 98T114 224V544Q114 573 108 587T84 607T29 613Q27 613 27 619T29 625Q53 625 82 624T146 622Q181 622 211 623T263 625Q266 625 266 619T263 613Q227 613 209 607T185 586T179 542V259Q179 140 232 79T382 17Q472 17 522 73T572 230V515ZM473 679Q422
702 370 721T250 756Q244 757 252 762T273 773T299 783T315 784Q353 761 392 737T477 689Q481 688 479 683T473 679Z" />
<glyph unicode="&#xda;" horiz-adv-x="698" d="M572 515Q572 564 551 588T485 613Q482 613 482 619T485 625Q508 625 532 624T585 622Q608 622 632 623T676 625Q678 625 678 619T676 613Q636 613 616 589T596 515V231Q596 154 567 100T484 16T360 -13Q286 -13
231 16T145 98T114 224V544Q114 573 108 587T84 607T29 613Q27 613 27 619T29 625Q53 625 82 624T146 622Q181 622 211 623T263 625Q266 625 266 619T263 613Q227 613 209 607T185 586T179 542V259Q179 140 232 79T382 17Q472 17 522 73T572 230V515ZM277 679Q273
677 271 682T272 689Q319 713 357 737T435 784Q438 787 450 783T476 773T497 762T499 756Q432 740 380 721T277 679Z" />
<glyph unicode="&#xdb;" horiz-adv-x="698" d="M572 515Q572 564 551 588T485 613Q482 613 482 619T485 625Q508 625 532 624T585 622Q608 622 632 623T676 625Q678 625 678 619T676 613Q636 613 616 589T596 515V231Q596 154 567 100T484 16T360 -13Q286 -13
231 16T145 98T114 224V544Q114 573 108 587T84 607T29 613Q27 613 27 619T29 625Q53 625 82 624T146 622Q181 622 211 623T263 625Q266 625 266 619T263 613Q227 613 209 607T185 586T179 542V259Q179 140 232 79T382 17Q472 17 522 73T572 230V515ZM260 692L363
790Q368 795 375 795T386 790L488 692Q491 691 488 688T483 685L375 743L266 685Q265 684 262 687T260 692Z" />
<glyph unicode="&#xdc;" horiz-adv-x="698" d="M572 515Q572 564 551 588T485 613Q482 613 482 619T485 625Q508 625 532 624T585 622Q608 622 632 623T676 625Q678 625 678 619T676 613Q636 613 616 589T596 515V231Q596 154 567 100T484 16T360 -13Q286 -13
231 16T145 98T114 224V544Q114 573 108 587T84 607T29 613Q27 613 27 619T29 625Q53 625 82 624T146 622Q181 622 211 623T263 625Q266 625 266 619T263 613Q227 613 209 607T185 586T179 542V259Q179 140 232 79T382 17Q472 17 522 73T572 230V515ZM287 717Q267
717 256 727T244 758Q244 777 255 788T287 799Q307 799 317 788T328 758Q328 717 287 717ZM462 717Q443 717 431 727T419 758Q419 777 431 788T462 799Q504 799 504 758Q504 717 462 717Z" />
<glyph unicode="&#xdd;" horiz-adv-x="609" d="M301 288L451 518Q480 565 472 589T419 613Q417 613 417 619T419 625Q446 625 471 624T536 622Q561 622 576 623T614 625Q616 625 616 619T614 613Q590 613 565 601T518 567T475 514L318 273L301 288ZM290 272L110
536Q82 579 57 596T-1 613Q-4 613 -4 619T-1 625Q16 625 35 624T70 622Q97 622 122 622T170 624T210 625Q212 625 212 619T210 613Q171 613 162 602T168 568L339 317L290 272ZM276 310L341 319V81Q341 52 347 37T371 17T426 12Q429 12 429 6T426 0Q402 0 373 1T308
2Q275 2 244 1T190 0Q187 0 187 6T190 12Q226 12 245 17T270 37T276 81V310ZM221 679Q217 677 215 682T216 689Q263 713 301 737T379 784Q382 787 394 783T420 773T441 762T443 756Q376 740 324 721T221 679Z" />
<glyph unicode="&#xde;" horiz-adv-x="538" d="M127 544Q127 573 121 587T97 607T43 613Q41 613 41 619T43 625Q67 625 97 624T159 622Q203 622 240 623T310 625Q313 625 313 619T310 613Q259 613 233 607T199 586T191 539V85Q191 55 199 40T233 18T310 12Q313
12 313 6T310 0Q278 0 241 1T159 2Q127 2 97 1T43 0Q41 0 41 6T43 12Q79 12 96 17T120 37T127 81V544ZM150 483Q182 492 218 495T285 499Q344 499 392 484T470 433T501 336Q503 283 483 245T431 182T359 145T282 133Q269 133 257 134T233 138Q229 139 230 145T235
151Q244 150 253 149T271 147Q312 147 347 165T405 220T427 316Q427 398 381 441T260 485Q233 485 207 481T158 469L150 483Z" />
<glyph unicode="&#xdf;" horiz-adv-x="507" d="M348 -11Q328 -11 308 -5T266 19Q264 21 262 24T260 31L258 121Q258 123 263 123T270 122Q282 84 299 59T335 22T377 9Q403 9 419 30T432 85Q430 123 405 154T349 215Q317 247 290 283T262 364Q262 399 276 424T309
473T343 525T358 593Q358 618 351 645T324 691T268 711Q209 711 178 641T146 446V81Q146 38 157 25T210 12Q212 12 212 6T210 0Q186 0 164 0T118 1Q91 1 66 1T20 0Q17 0 17 6T20 12Q63 12 75 25T88 81L87 448Q87 581 141 653T294 726Q340 726 367 711T406 672T418
628Q418 599 407 577T378 535T344 496T315 457T303 411Q303 375 330 342T390 275Q413 252 434 228T469 177T483 121Q483 90 467 60T420 9T348 -11Z" />
<glyph unicode="&#xe0;" horiz-adv-x="419" d="M314 -6Q310 -8 306 -8Q293 -8 281 13T269 76V255Q269 302 261 328T238 364T205 374Q180 374 164 362T140 330T129 292Q128 278 121 266T92 254Q76 254 67 262T58 284Q58 302 76 321T121 357T179 384T237 395Q275
395 300 369T325 285V108Q325 73 334 57T363 41Q381 41 413 54Q418 56 420 51T417 43L314 -6ZM118 -7Q86 -7 70 10T54 51Q54 79 76 95T148 129L279 176L282 165L166 121Q143 112 134 101T124 73Q124 52 136 41T167 29Q178 29 188 31T208 39L293 82L295 70L208 23Q178
8 158 1T118 -7ZM113 727Q112 731 120 731T141 729T164 723T174 716L225 476Q227 474 222 473T215 474L113 727Z" />
<glyph unicode="&#xe1;" horiz-adv-x="419" d="M314 -6Q310 -8 306 -8Q293 -8 281 13T269 76V255Q269 302 261 328T238 364T205 374Q180 374 164 362T140 330T129 292Q128 278 121 266T92 254Q76 254 67 262T58 284Q58 302 76 321T121 357T179 384T237 395Q275
395 300 369T325 285V108Q325 73 334 57T363 41Q381 41 413 54Q418 56 420 51T417 43L314 -6ZM118 -7Q86 -7 70 10T54 51Q54 79 76 95T148 129L279 176L282 165L166 121Q143 112 134 101T124 73Q124 52 136 41T167 29Q178 29 188 31T208 39L293 82L295 70L208 23Q178
8 158 1T118 -7ZM207 474Q206 471 201 472T196 476L248 716Q249 719 258 722T280 728T302 731T309 727L207 474Z" />
<glyph unicode="&#xe2;" horiz-adv-x="419" d="M314 -6Q310 -8 306 -8Q293 -8 281 13T269 76V255Q269 302 261 328T238 364T205 374Q180 374 164 362T140 330T129 292Q128 278 121 266T92 254Q76 254 67 262T58 284Q58 302 76 321T121 357T179 384T237 395Q275
395 300 369T325 285V108Q325 73 334 57T363 41Q381 41 413 54Q418 56 420 51T417 43L314 -6ZM118 -7Q86 -7 70 10T54 51Q54 79 76 95T148 129L279 176L282 165L166 121Q143 112 134 101T124 73Q124 52 136 41T167 29Q178 29 188 31T208 39L293 82L295 70L208 23Q178
8 158 1T118 -7ZM288 476Q290 474 285 473T278 474L210 639L141 474Q140 471 135 472T130 476L198 725Q199 730 209 730T221 725L288 476Z" />
<glyph unicode="&#xe3;" horiz-adv-x="419" d="M314 -6Q310 -8 306 -8Q293 -8 281 13T269 76V255Q269 302 261 328T238 364T205 374Q180 374 164 362T140 330T129 292Q128 278 121 266T92 254Q76 254 67 262T58 284Q58 302 76 321T121 357T179 384T237 395Q275
395 300 369T325 285V108Q325 73 334 57T363 41Q381 41 413 54Q418 56 420 51T417 43L314 -6ZM118 -7Q86 -7 70 10T54 51Q54 79 76 95T148 129L279 176L282 165L166 121Q143 112 134 101T124 73Q124 52 136 41T167 29Q178 29 188 31T208 39L293 82L295 70L208 23Q178
8 158 1T118 -7ZM286 524Q305 524 315 532T335 551Q337 553 340 550T342 544Q315 506 298 494T263 482Q241 482 221 488T179 501T132 507Q112 507 103 499T83 480Q81 479 78 481T76 487Q84 498 97 512T127 537T161 548Q178 548 197 542T239 530T286 524Z" />
<glyph unicode="&#xe4;" horiz-adv-x="419" d="M314 -6Q310 -8 306 -8Q293 -8 281 13T269 76V255Q269 302 261 328T238 364T205 374Q180 374 164 362T140 330T129 292Q128 278 121 266T92 254Q76 254 67 262T58 284Q58 302 76 321T121 357T179 384T237 395Q275
395 300 369T325 285V108Q325 73 334 57T363 41Q381 41 413 54Q418 56 420 51T417 43L314 -6ZM118 -7Q86 -7 70 10T54 51Q54 79 76 95T148 129L279 176L282 165L166 121Q143 112 134 101T124 73Q124 52 136 41T167 29Q178 29 188 31T208 39L293 82L295 70L208 23Q178
8 158 1T118 -7ZM122 478Q102 478 91 488T79 519Q79 538 90 549T122 560Q142 560 152 549T163 519Q163 478 122 478ZM297 478Q278 478 266 488T254 519Q254 538 266 549T297 560Q339 560 339 519Q339 478 297 478Z" />
<glyph unicode="&#xe5;" horiz-adv-x="419" d="M314 -6Q310 -8 306 -8Q293 -8 281 13T269 76V255Q269 302 261 328T238 364T205 374Q180 374 164 362T140 330T129 292Q128 278 121 266T92 254Q76 254 67 262T58 284Q58 302 76 321T121 357T179 384T237 395Q275
395 300 369T325 285V108Q325 73 334 57T363 41Q381 41 413 54Q418 56 420 51T417 43L314 -6ZM118 -7Q86 -7 70 10T54 51Q54 79 76 95T148 129L279 176L282 165L166 121Q143 112 134 101T124 73Q124 52 136 41T167 29Q178 29 188 31T208 39L293 82L295 70L208 23Q178
8 158 1T118 -7ZM200 468Q159 468 136 492T112 547Q112 573 127 590T165 616T210 625Q246 625 272 602T298 545Q298 521 283 504T246 477T200 468ZM216 478Q252 478 252 527Q252 562 234 588T190 614Q157 614 157 567Q157 546 164 526T184 492T216 478Z" />
<glyph unicode="&#xe6;" horiz-adv-x="589" d="M420 -12Q375 -12 339 5T282 62T257 170Q255 241 250 287T231 355T183 378Q159 378 145 366T125 333T116 291Q115 281 110 268T82 255Q64 255 55 263T46 287Q46 304 60 322T99 357T151 384T205 395Q245 395 275 369T306
299Q307 286 309 276T314 251T316 215Q317 187 321 154T339 91T379 41T451 21Q482 21 506 29T552 56Q555 58 558 54T559 46Q526 15 493 2T420 -12ZM114 -7Q83 -7 65 10T47 52Q47 79 69 94T141 127L283 175L285 164L159 117Q137 110 128 101T118 74Q118 54 130 42T162
29Q172 29 181 30T201 35L297 82L298 70L201 21Q171 5 153 -1T114 -7ZM295 271L294 284L496 289V273L295 271ZM316 215L282 299Q309 343 353 369T451 395Q501 395 528 369T555 294Q555 283 553 278T542 273H484Q489 323 470 349T418 375Q370 375 343 332T316 215Z"
/>
<glyph unicode="&#xe7;" horiz-adv-x="411" d="M231 -12Q163 -12 120 17T57 92T36 185Q36 235 55 274T107 340T178 381T254 395Q283 395 309 388T353 366T371 334Q371 321 362 312T336 302Q320 302 310 312T292 335Q281 353 266 364T221 375Q164 375 133 331T102
215Q102 164 119 120T174 50T270 23Q297 23 323 30T372 56Q374 58 377 54T379 48Q344 17 309 3T231 -12ZM227 -2Q216 -37 215 -53T223 -78T258 -102Q279 -114 295 -132T312 -179Q312 -200 302 -222T268 -259T208 -275Q181 -275 163 -266T144 -237Q144 -223 153
-215T174 -207Q188 -207 194 -214T204 -231T215 -248T240 -255Q274 -255 274 -217Q274 -191 256 -171T188 -124Q175 -117 174 -113T179 -94Q187 -75 191 -64T200 -40T214 -1L227 -2Z" />
<glyph unicode="&#xe8;" horiz-adv-x="408" d="M224 -12Q162 -12 120 15T57 87T36 180Q36 241 64 289T141 366T251 395Q306 395 335 369T365 296Q365 285 363 279T353 273H295Q299 322 278 348T217 375Q161 375 132 333T102 219Q102 162 120 118T174 49T259 23Q285
23 312 31T363 56Q365 58 368 54T370 46Q334 15 298 2T224 -12ZM84 271L83 284L311 289V273L84 271ZM131 727Q130 731 138 731T159 729T182 723T192 716L243 476Q245 474 240 473T233 474L131 727Z" />
<glyph unicode="&#xe9;" horiz-adv-x="408" d="M224 -12Q162 -12 120 15T57 87T36 180Q36 241 64 289T141 366T251 395Q306 395 335 369T365 296Q365 285 363 279T353 273H295Q299 322 278 348T217 375Q161 375 132 333T102 219Q102 162 120 118T174 49T259 23Q285
23 312 31T363 56Q365 58 368 54T370 46Q334 15 298 2T224 -12ZM84 271L83 284L311 289V273L84 271ZM225 474Q224 471 219 472T214 476L266 716Q267 719 276 722T298 728T320 731T327 727L225 474Z" />
<glyph unicode="&#xea;" horiz-adv-x="408" d="M224 -12Q162 -12 120 15T57 87T36 180Q36 241 64 289T141 366T251 395Q306 395 335 369T365 296Q365 285 363 279T353 273H295Q299 322 278 348T217 375Q161 375 132 333T102 219Q102 162 120 118T174 49T259 23Q285
23 312 31T363 56Q365 58 368 54T370 46Q334 15 298 2T224 -12ZM84 271L83 284L311 289V273L84 271ZM306 476Q308 474 303 473T296 474L228 639L159 474Q158 471 153 472T148 476L216 725Q217 730 227 730T239 725L306 476Z" />
<glyph unicode="&#xeb;" horiz-adv-x="408" d="M224 -12Q162 -12 120 15T57 87T36 180Q36 241 64 289T141 366T251 395Q306 395 335 369T365 296Q365 285 363 279T353 273H295Q299 322 278 348T217 375Q161 375 132 333T102 219Q102 162 120 118T174 49T259 23Q285
23 312 31T363 56Q365 58 368 54T370 46Q334 15 298 2T224 -12ZM84 271L83 284L311 289V273L84 271ZM140 478Q120 478 109 488T97 519Q97 538 108 549T140 560Q160 560 170 549T181 519Q181 478 140 478ZM315 478Q296 478 284 488T272 519Q272 538 284 549T315
560Q357 560 357 519Q357 478 315 478Z" />
<glyph unicode="&#xec;" horiz-adv-x="273" d="M53 0Q51 0 51 6T53 12Q92 12 104 25T117 81V268Q117 303 110 319T84 336Q76 336 65 333T39 322Q35 321 33 326T33 334L163 394Q166 395 167 395Q169 395 172 393T175 387Q175 379 174 348T173 269V81Q173 39 184
26T236 12Q239 12 239 6T236 0Q218 0 195 1T145 2Q119 2 96 1T53 0ZM297 727Q296 731 304 731T325 729T348 723T358 716L409 476Q411 474 406 473T399 474L297 727Z" />
<glyph unicode="&#xed;" horiz-adv-x="273" d="M53 0Q51 0 51 6T53 12Q92 12 104 25T117 81V268Q117 303 110 319T84 336Q76 336 65 333T39 322Q35 321 33 326T33 334L163 394Q166 395 167 395Q169 395 172 393T175 387Q175 379 174 348T173 269V81Q173 39 184
26T236 12Q239 12 239 6T236 0Q218 0 195 1T145 2Q119 2 96 1T53 0ZM135 474Q134 471 129 472T124 476L176 716Q177 719 186 722T208 728T230 731T237 727L135 474Z" />
<glyph unicode="&#xee;" horiz-adv-x="273" d="M53 0Q51 0 51 6T53 12Q92 12 104 25T117 81V268Q117 303 110 319T84 336Q76 336 65 333T39 322Q35 321 33 326T33 334L163 394Q166 395 167 395Q169 395 172 393T175 387Q175 379 174 348T173 269V81Q173 39 184
26T236 12Q239 12 239 6T236 0Q218 0 195 1T145 2Q119 2 96 1T53 0ZM216 476Q218 474 213 473T206 474L138 639L69 474Q68 471 63 472T58 476L126 725Q127 730 137 730T149 725L216 476Z" />
<glyph unicode="&#xef;" horiz-adv-x="273" d="M53 0Q51 0 51 6T53 12Q92 12 104 25T117 81V268Q117 303 110 319T84 336Q76 336 65 333T39 322Q35 321 33 326T33 334L163 394Q166 395 167 395Q169 395 172 393T175 387Q175 379 174 348T173 269V81Q173 39 184
26T236 12Q239 12 239 6T236 0Q218 0 195 1T145 2Q119 2 96 1T53 0ZM322 478Q302 478 291 488T279 519Q279 538 290 549T322 560Q342 560 353 549T364 519Q364 499 353 489T322 478ZM465 478Q445 478 434 488T422 519Q422 538 433 549T465 560Q506 560 506 519Q506
478 465 478Z" />
<glyph unicode="&#xf0;" horiz-adv-x="470" d="M378 256Q363 315 323 347T229 380Q175 380 137 338T99 215Q99 159 117 111T170 35T251 6Q287 6 314 22T355 79T370 191Q370 274 348 353T288 501T199 625T90 716Q86 718 89 722T96 725Q175 689 238 634T345 513T414
373T438 227Q438 142 408 89T330 12T223 -13Q165 -13 122 14T56 87T32 186Q32 241 51 281T102 347T170 386T241 399Q276 399 309 386T367 347L378 256ZM125 484Q123 483 120 487T115 498T117 505L391 635Q395 636 398 632T401 621T399 614L125 484Z" />
<glyph unicode="&#xf1;" horiz-adv-x="517" d="M314 0Q311 0 311 6T314 12Q353 12 364 25T376 81V243Q376 303 354 330T284 358Q248 358 210 335T145 272L141 284Q185 343 228 371T317 399Q372 399 402 369T433 277V81Q433 39 444 26T495 12Q498 12 498 6T495
0Q478 0 455 1T405 2Q379 2 355 1T314 0ZM45 0Q42 0 42 6T45 12Q84 12 95 25T107 81V279Q107 312 100 327T72 343Q62 343 49 339T18 328Q14 327 12 332T13 339L129 394Q132 395 135 395Q142 395 153 374T164 313V81Q164 39 175 26T226 12Q229 12 229 6T226 0Q209
0 186 1T136 2Q110 2 86 1T45 0ZM348 524Q367 524 377 532T397 551Q399 553 402 550T404 544Q377 506 360 494T325 482Q303 482 283 488T241 501T194 507Q174 507 165 499T145 480Q143 479 140 481T138 487Q146 498 159 512T189 537T223 548Q240 548 259 542T301
530T348 524Z" />
<glyph unicode="&#xf2;" horiz-adv-x="479" d="M231 -13Q172 -13 128 16T60 93T36 198Q36 250 55 288T106 350T175 387T249 399Q310 399 353 369T420 292T443 193Q443 129 414 83T337 12T231 -13ZM260 6Q313 6 344 43T375 165Q375 228 355 276T298 352T216 380Q163
380 133 341T103 229Q103 168 123 117T178 36T260 6ZM144 727Q143 731 151 731T172 729T195 723T205 716L256 476Q258 474 253 473T246 474L144 727Z" />
<glyph unicode="&#xf3;" horiz-adv-x="479" d="M231 -13Q172 -13 128 16T60 93T36 198Q36 250 55 288T106 350T175 387T249 399Q310 399 353 369T420 292T443 193Q443 129 414 83T337 12T231 -13ZM260 6Q313 6 344 43T375 165Q375 228 355 276T298 352T216 380Q163
380 133 341T103 229Q103 168 123 117T178 36T260 6ZM238 474Q237 471 232 472T227 476L279 716Q280 719 289 722T311 728T333 731T340 727L238 474Z" />
<glyph unicode="&#xf4;" horiz-adv-x="479" d="M231 -13Q172 -13 128 16T60 93T36 198Q36 250 55 288T106 350T175 387T249 399Q310 399 353 369T420 292T443 193Q443 129 414 83T337 12T231 -13ZM260 6Q313 6 344 43T375 165Q375 228 355 276T298 352T216 380Q163
380 133 341T103 229Q103 168 123 117T178 36T260 6ZM319 476Q321 474 316 473T309 474L241 639L172 474Q171 471 166 472T161 476L229 725Q230 730 240 730T252 725L319 476Z" />
<glyph unicode="&#xf5;" horiz-adv-x="479" d="M231 -13Q172 -13 128 16T60 93T36 198Q36 250 55 288T106 350T175 387T249 399Q310 399 353 369T420 292T443 193Q443 129 414 83T337 12T231 -13ZM260 6Q313 6 344 43T375 165Q375 228 355 276T298 352T216 380Q163
380 133 341T103 229Q103 168 123 117T178 36T260 6ZM317 524Q336 524 346 532T366 551Q368 553 371 550T373 544Q346 506 329 494T294 482Q272 482 252 488T210 501T163 507Q143 507 134 499T114 480Q112 479 109 481T107 487Q115 498 128 512T158 537T192 548Q209
548 228 542T270 530T317 524Z" />
<glyph unicode="&#xf6;" horiz-adv-x="479" d="M231 -13Q172 -13 128 16T60 93T36 198Q36 250 55 288T106 350T175 387T249 399Q310 399 353 369T420 292T443 193Q443 129 414 83T337 12T231 -13ZM260 6Q313 6 344 43T375 165Q375 228 355 276T298 352T216 380Q163
380 133 341T103 229Q103 168 123 117T178 36T260 6ZM153 478Q133 478 122 488T110 519Q110 538 121 549T153 560Q173 560 183 549T194 519Q194 478 153 478ZM328 478Q309 478 297 488T285 519Q285 538 297 549T328 560Q370 560 370 519Q370 478 328 478Z" />
<glyph unicode="&#xf7;" horiz-adv-x="398" d="M34 170Q31 170 30 180T30 199T33 209H364Q367 209 368 200T368 180T364 170H34ZM198 -11Q177 -11 166 0T154 32Q154 51 165 62T198 74Q218 74 229 63T240 32Q240 12 229 1T198 -11ZM198 311Q177 311 166 322T154
354Q154 373 165 384T198 395Q218 395 229 384T240 354Q240 311 198 311Z" />
<glyph unicode="&#xf8;" horiz-adv-x="477" d="M51 -14Q50 -16 46 -14T38 -6T36 1L422 399Q424 401 429 398T437 392T437 385L51 -14ZM231 -13Q172 -13 128 16T60 93T36 198Q36 250 55 288T106 350T175 387T249 399Q310 399 353 369T420 292T443 193Q443 129 414
83T337 12T231 -13ZM260 6Q313 6 344 43T375 165Q375 228 355 276T298 352T216 380Q163 380 133 341T103 229Q103 168 123 117T178 36T260 6Z" />
<glyph unicode="&#xf9;" horiz-adv-x="493" d="M182 -8Q133 -8 105 23T76 115V268Q76 307 70 324T46 342Q32 342 12 332Q8 331 6 337T7 344L118 394Q120 395 122 395Q125 395 128 393T132 387V148Q132 89 153 61T216 32Q254 32 292 55T360 117L365 106Q319 47
275 20T182 -8ZM397 387V107Q397 73 405 58T432 43Q442 43 454 46T485 57Q490 59 492 54T490 46L373 -9Q371 -10 369 -10Q361 -10 351 11T341 73V268Q341 307 335 324T311 342Q297 342 277 332Q273 331 271 337T273 344L384 394Q386 395 387 395Q390 395 393 393T397
387ZM142 727Q141 731 149 731T170 729T193 723T203 716L254 476Q256 474 251 473T244 474L142 727Z" />
<glyph unicode="&#xfa;" horiz-adv-x="493" d="M182 -8Q133 -8 105 23T76 115V268Q76 307 70 324T46 342Q32 342 12 332Q8 331 6 337T7 344L118 394Q120 395 122 395Q125 395 128 393T132 387V148Q132 89 153 61T216 32Q254 32 292 55T360 117L365 106Q319 47
275 20T182 -8ZM397 387V107Q397 73 405 58T432 43Q442 43 454 46T485 57Q490 59 492 54T490 46L373 -9Q371 -10 369 -10Q361 -10 351 11T341 73V268Q341 307 335 324T311 342Q297 342 277 332Q273 331 271 337T273 344L384 394Q386 395 387 395Q390 395 393 393T397
387ZM236 474Q235 471 230 472T225 476L277 716Q278 719 287 722T309 728T331 731T338 727L236 474Z" />
<glyph unicode="&#xfb;" horiz-adv-x="493" d="M182 -8Q133 -8 105 23T76 115V268Q76 307 70 324T46 342Q32 342 12 332Q8 331 6 337T7 344L118 394Q120 395 122 395Q125 395 128 393T132 387V148Q132 89 153 61T216 32Q254 32 292 55T360 117L365 106Q319 47
275 20T182 -8ZM397 387V107Q397 73 405 58T432 43Q442 43 454 46T485 57Q490 59 492 54T490 46L373 -9Q371 -10 369 -10Q361 -10 351 11T341 73V268Q341 307 335 324T311 342Q297 342 277 332Q273 331 271 337T273 344L384 394Q386 395 387 395Q390 395 393 393T397
387ZM317 476Q319 474 314 473T307 474L239 639L170 474Q169 471 164 472T159 476L227 725Q228 730 238 730T250 725L317 476Z" />
<glyph unicode="&#xfc;" horiz-adv-x="493" d="M182 -8Q133 -8 105 23T76 115V268Q76 307 70 324T46 342Q32 342 12 332Q8 331 6 337T7 344L118 394Q120 395 122 395Q125 395 128 393T132 387V148Q132 89 153 61T216 32Q254 32 292 55T360 117L365 106Q319 47
275 20T182 -8ZM397 387V107Q397 73 405 58T432 43Q442 43 454 46T485 57Q490 59 492 54T490 46L373 -9Q371 -10 369 -10Q361 -10 351 11T341 73V268Q341 307 335 324T311 342Q297 342 277 332Q273 331 271 337T273 344L384 394Q386 395 387 395Q390 395 393 393T397
387ZM151 478Q131 478 120 488T108 519Q108 538 119 549T151 560Q171 560 181 549T192 519Q192 478 151 478ZM326 478Q307 478 295 488T283 519Q283 538 295 549T326 560Q368 560 368 519Q368 478 326 478Z" />
<glyph unicode="&#xfd;" horiz-adv-x="435" d="M431 386Q434 386 434 380T431 374Q406 374 388 357T354 297L232 -28Q196 -124 163 -179T95 -258T16 -281Q-5 -281 -20 -272T-35 -242Q-35 -227 -26 -220T-4 -212Q16 -212 26 -218T46 -230T72 -236Q96 -236 118 -214T167
-137T228 10L227 -18L69 303Q47 347 35 360T3 374Q1 374 1 380T3 386Q19 386 36 385T70 384Q103 384 128 385T173 386Q175 386 175 380T173 374Q141 374 125 366T120 335L257 53L234 12L332 294Q347 339 332 356T263 374Q261 374 261 380T263 386Q287 386 308 385T364
384Q386 384 399 385T431 386ZM222 474Q221 471 216 472T211 476L263 716Q264 719 273 722T295 728T317 731T324 727L222 474Z" />
<glyph unicode="&#xfe;" horiz-adv-x="491" d="M14 -275Q12 -275 12 -269T14 -263Q53 -263 65 -250T78 -194V598Q78 633 71 649T45 666Q30 666 0 652Q-4 650 -7 656T-6 663L120 724Q122 725 124 725Q127 725 130 723T133 717V-194Q133 -222 141 -237T170 -257T233
-263Q236 -263 236 -269T233 -275Q207 -275 175 -274T106 -273Q80 -273 56 -274T14 -275ZM240 -13Q201 -13 172 -4T107 30L122 85Q149 52 182 30T269 8Q321 8 356 54T391 184Q391 271 353 316T259 361Q216 361 182 337T117 278L109 286Q159 345 206 372T302 399Q342
399 377 378T433 315T455 215Q455 154 435 111T381 41T310 0T240 -13Z" />
<glyph unicode="&#xff;" horiz-adv-x="435" d="M431 386Q434 386 434 380T431 374Q406 374 388 357T354 297L232 -28Q196 -124 163 -179T95 -258T16 -281Q-5 -281 -20 -272T-35 -242Q-35 -227 -26 -220T-4 -212Q16 -212 26 -218T46 -230T72 -236Q96 -236 118 -214T167
-137T228 10L227 -18L69 303Q47 347 35 360T3 374Q1 374 1 380T3 386Q19 386 36 385T70 384Q103 384 128 385T173 386Q175 386 175 380T173 374Q141 374 125 366T120 335L257 53L234 12L332 294Q347 339 332 356T263 374Q261 374 261 380T263 386Q287 386 308 385T364
384Q386 384 399 385T431 386ZM137 478Q117 478 106 488T94 519Q94 538 105 549T137 560Q157 560 167 549T178 519Q178 478 137 478ZM312 478Q293 478 281 488T269 519Q269 538 281 549T312 560Q354 560 354 519Q354 478 312 478Z" />
<glyph unicode="&#x2013;" horiz-adv-x="515" d="M34 170Q31 170 30 180T30 199T33 209H481Q484 209 485 200T485 180T481 170H34Z" />
<glyph unicode="&#x2014;" horiz-adv-x="830" d="M34 170Q31 170 30 180T30 199T33 209H796Q799 209 800 200T800 180T796 170H34Z" />
<glyph unicode="&#x2018;" horiz-adv-x="194" d="M105 382Q76 382 59 403T41 469Q41 516 61 556T116 634Q120 637 123 634T124 627Q101 593 94 565T86 505Q86 475 94 459T114 433L76 426Q75 443 85 452T111 461Q130 461 140 450T151 421Q151 402 140 392T105 382Z" />
<glyph unicode="&#x2019;" horiz-adv-x="192" d="M87 633Q117 633 134 612T151 545Q151 499 131 459T76 381Q72 378 69 381T68 388Q92 421 99 450T106 510Q106 539 98 555T78 582L116 589Q117 572 107 563T81 554Q62 554 52 564T41 593Q41 612 52 622T87 633Z" />
<glyph unicode="&#x201a;" horiz-adv-x="192" d="M343 71Q373 71 390 50T407 -17Q407 -63 387 -103T332 -181Q328 -184 325 -181T324 -174Q348 -141 355 -112T362 -52Q362 -23 354 -7T334 20L372 27Q373 10 363 1T337 -8Q318 -8 308 2T297 31Q297 50 308 60T343 71Z" />
<glyph unicode="&#x201c;" horiz-adv-x="340" d="M106 382Q77 382 60 403T42 469Q42 516 62 556T117 634Q121 637 124 634T125 627Q102 593 95 565T87 505Q87 475 95 459T115 433L77 426Q76 443 86 452T112 461Q131 461 141 450T152 421Q152 402 141 392T106 382ZM253
382Q223 382 206 403T188 469Q188 516 208 556T263 634Q267 637 270 634T271 627Q248 593 241 565T234 505Q234 475 242 459T261 433L223 426Q222 443 232 452T259 461Q277 461 287 450T298 421Q298 402 287 392T253 382Z" />
<glyph unicode="&#x201d;" horiz-adv-x="340" d="M234 633Q264 633 281 612T298 545Q298 499 278 459T223 381Q219 378 216 381T215 388Q239 421 246 450T253 510Q253 539 245 555T225 582L263 589Q264 572 254 563T228 554Q209 554 199 564T188 593Q188 612 199
622T234 633ZM87 633Q117 633 134 612T151 545Q151 499 131 459T76 381Q72 378 69 381T68 388Q92 421 99 450T106 510Q106 539 98 555T78 582L116 589Q117 572 107 563T81 554Q62 554 52 564T41 593Q41 612 52 622T87 633Z" />
<glyph unicode="&#x201e;" horiz-adv-x="342" d="M234 71Q264 71 281 50T298 -17Q298 -63 278 -103T223 -181Q219 -184 216 -181T215 -174Q239 -141 246 -112T253 -52Q253 -23 245 -7T225 20L263 27Q264 10 254 1T228 -8Q209 -8 199 2T188 31Q188 50 199 60T234
71ZM343 71Q373 71 390 50T407 -17Q407 -63 387 -103T332 -181Q328 -184 325 -181T324 -174Q348 -141 355 -112T362 -52Q362 -23 354 -7T334 20L372 27Q373 10 363 1T337 -8Q318 -8 308 2T297 31Q297 50 308 60T343 71Z" />
<glyph unicode="&#x2022;" horiz-adv-x="306" d="M153 151Q126 151 104 163T69 198T55 248Q55 274 68 296T104 331T153 344Q180 344 201 331T236 296T250 248Q250 221 237 199T202 164T153 151Z" />
<glyph unicode="&#x2039;" horiz-adv-x="304" d="M236 40L59 189Q55 194 55 201T59 212L236 361Q238 364 241 361T243 356L121 201L243 46Q244 44 241 41T236 40Z" />
<glyph unicode="&#x203a;" horiz-adv-x="304" d="M68 361L245 212Q250 208 250 201T245 189L68 40Q67 37 64 40T61 46L183 200L61 356Q60 358 63 361T68 361Z" />
</font>
</defs>
</svg>
